Mariah Carey – Always Be My Baby (US CD5) (1996)

Download
Mariah Carey - Always Be My Baby (US CD5) (1996)

Mariah Carey – Always Be My Baby (US CD5) (1996)
EAC Rip | FLAC with CUE and log | scans | 155 mb
MP3 CBR 320kbps | RAR | 54 mb
Genre: R&B, soul, hip-hop, rap

"Always Be My Baby" is the 1996 single by American R&B singer Mariah Carey. Released in support of her Daydream, this CD5 features five different mixes of the song, including remixes featuring rapper Da Brat and R&B vocal group Xscape. This mix became a hit on the R&B charts.

Mariah Carey - Always Be My Baby (US CD5) (1996)

1. Mariah Carey featuring Xscape – Always Be My Baby (Mr. Dupri No Rap Radio Mix)
2. Mariah Carey featuring Da Brat & Xscape – Always Be My Baby (Mr. Dupri Mix)
3. Mariah Carey featuring Da Brat & Xscape – Always Be My Baby (Mr. Dupri Extended Mix)
4. Mariah Carey featuring Lil’ Vicious – Always Be My Baby (Reggae Soul Mix)
5. Mariah Carey – Always Be My Baby (Album Version)

Mariah Carey-lead and background vocals (all tracks)
Xscape-background vocals (tracks 1-3)
Da Brat-rap (tracks 2-3)
Lil’ VIcious-toasting (track 4)
Melonie Daniels-background vocals (tracks 4 & 5)
Kelly Price-background vocals (tracks 4 & 5)
Shanrae Price-background vocals (tracks 4 & 5)

Tracks 1-3 remix produced by Jermaine Dupri & Mariah Carey
Track 4 remix produced by Cory Rooney
Track 5 co-produced with Manuel Seal

EAC Log
Exact Audio Copy V1.1 from 23. June 2015

EAC extraction logfile from 1. February 2017, 21:15

Mariah Carey / Always Be My Baby (US CD5)

Used drive : TEAC DVD-ROM DV-28SW Adapter: 1 ID: 0

Read mode : Secure
Utilize accurate stream : Yes
Defeat audio cache : Yes
Make use of C2 pointers : No

Read offset correction : 6
Overread into Lead-In and Lead-Out : No
Fill up missing offset samples with silence : Yes
Delete leading and trailing silent blocks : No
Null samples used in CRC calculations : Yes
Used interface : Native Win32 interface for Win NT & 2000
Gap handling : Appended to previous track

Used output format : Internal WAV Routines
Sample format : 44.100 Hz; 16 Bit; Stereo

TOC of the extracted CD

Track | Start | Length | Start sector | End sector
––––––––––––––––––––––––––––-
1 | 0:00.00 | 3:43.60 | 0 | 16784
2 | 3:43.60 | 4:42.32 | 16785 | 37966
3 | 8:26.17 | 5:32.43 | 37967 | 62909
4 | 13:58.60 | 4:56.02 | 62910 | 85111
5 | 18:54.62 | 4:18.45 | 85112 | 104506

Track 1

Filename C:My DocumentsMy FLACMariah Carey – Always Be My Baby (US CD5) (1996) [FLAC]1 – Mariah Carey featuring Xscape – Always Be My Baby (Mr. Dupri No Rap Radio Mix).wav

Pre-gap length 0:00:02.00

Peak level 97.2 %
Extraction speed 2.5 X
Track quality 100.0 %
Test CRC 163E3434
Copy CRC 163E3434
Accurately ripped (confidence 9) [BE9CB528] (AR v2)
Copy OK

Track 2

Filename C:My DocumentsMy FLACMariah Carey – Always Be My Baby (US CD5) (1996) [FLAC]2 – Mariah Carey featuring Da Brat & Xscape – Always Be My Baby (Mr. Dupri Mix).wav

Pre-gap length 0:00:01.08

Peak level 97.2 %
Extraction speed 1.9 X
Track quality 100.0 %
Test CRC 2D728E55
Copy CRC 2D728E55
Accurately ripped (confidence 9) [00085AAF] (AR v2)
Copy OK

Track 3

Filename C:My DocumentsMy FLACMariah Carey – Always Be My Baby (US CD5) (1996) [FLAC]3 – Mariah Carey featuring Da Brat & Xscape – Always Be My Baby (Mr. Dupri Extended Mix).wav

Pre-gap length 0:00:02.17

Peak level 97.2 %
Extraction speed 3.4 X
Track quality 100.0 %
Test CRC B9E44DAA
Copy CRC B9E44DAA
Accurately ripped (confidence 9) [571CF199] (AR v2)
Copy OK

Track 4

Filename C:My DocumentsMy FLACMariah Carey – Always Be My Baby (US CD5) (1996) [FLAC]4 – Mariah Carey featuring Lil’ Vicious – Always Be My Baby (Reggae Soul Mix).wav

Pre-gap length 0:00:01.68

Peak level 93.9 %
Extraction speed 3.6 X
Track quality 100.0 %
Test CRC 94EC6F7C
Copy CRC 94EC6F7C
Accurately ripped (confidence 9) [8BB45036] (AR v2)
Copy OK

Track 5

Filename C:My DocumentsMy FLACMariah Carey – Always Be My Baby (US CD5) (1996) [FLAC]5 – Mariah Carey – Always Be My Baby (Album Version).wav

Pre-gap length 0:00:02.20

Peak level 97.7 %
Extraction speed 3.3 X
Track quality 100.0 %
Test CRC CA4D23C6
Copy CRC CA4D23C6
Accurately ripped (confidence 9) [161B37EE] (AR v2)
Copy OK

All tracks accurately ripped

No errors occurred

End of status report

–– CUETools DB Plugin V2.1.6

[CTDB TOCID: 59Ub_LvKrjJ3rb6YsPj4xn_xvUk-] found
Submit result: 59Ub_LvKrjJ3rb6YsPj4xn_xvUk- has been confirmed
Track | CTDB Status
1 | (11/11) Accurately ripped
2 | (11/11) Accurately ripped
3 | (11/11) Accurately ripped
4 | (11/11) Accurately ripped
5 | (11/11) Accurately ripped

==== Log checksum 16F3EE1BC8B4E0CEEB34C1876E750FBAD4DB24B078932B56E13B7A303EA90DEC ====

Mariah Carey - Always Be My Baby (US CD5) (1996)

Mariah Carey – Always Be My Baby (US CD5) (1996) Download, Warez, DDL, Free, Full Album, Torrent, Legal.

Download