Marcus Fjellstrom – Schattenspieler (2010)

Download
Marcus Fjellstrom - Schattenspieler (2010)

Marcus Fjellstrom – Schattenspieler (2010)
EAC Rip | FLAC (image+.cue+log) – 276 MB | MP3 CBR 320 kbps (LAME 3.93) – 113 MB | Covers – 45 MB
Genre: Ambient | RAR 3% Rec. | Label: Miasmah (MIACD013)

Swedish composer and multimedia artist Marcus Fjellström’s debut Miasmah release follows two critically acclaimed full length albums on Lampse (2006’s "Gebrauchsmusik" and 2005’s "Exercises In Estrangement"). "Schattenspieler" (which translates as "Shadowplayer") takes the form of eleven compositions which explore ambience and melody, texture and silence. Haunting synth and orchestral instrument-based audio constructions, flowing from one moment to the next – the fleeting ghosts of Fjellström’s melodies rise, only to be buried under a claustrophobic clutter of percussion and creaking background noise. These pieces do indeed feel like you’re listening to something more implied than obviously stated, as if Fjellström wants only to expose us to the shadow of the music – the implication being perhaps a more terrifying experience than to be confronted outright… listen to "Schattenspieler" and you may find your mind starts to play tricks on you…

Tracklist:
01. The Disjointed
02. Bis Einer Weint
03. Antichrist Architecture Management
04. Untitled 090616
05. Tremolous
06. Monolith & Bunker
07. Noir Revisited
08. Perspex
09. Liquid Fire
10. Tenebrous
11. Uncanny Valleys

Total time: 48:18

EAC log
Exact Audio Copy V1.0 beta 1 from 15. November 2010

EAC extraction logfile from 6. May 2011, 11:49

Marcus Fjellström / Schattenspieler

Used drive : ASUS DRW-1814BLT Adapter: 3 ID: 0

Read mode : Secure
Utilize accurate stream : Yes
Defeat audio cache : Yes
Make use of C2 pointers : No

Read offset correction : 6
Overread into Lead-In and Lead-Out : No
Fill up missing offset samples with silence : Yes
Delete leading and trailing silent blocks : No
Null samples used in CRC calculations : Yes
Used interface : Native Win32 interface for Win NT & 2000

Used output format : User Defined Encoder
Selected bitrate : 1024 kBit/s
Quality : High
Add ID3 tag : No
Command line compressor : C:Program FilesExact Audio CopyFLACFLAC.EXE
Additional command line options : -T "DATE=%y" -T "GENRE=%m" -8 -V %s

TOC of the extracted CD

Track | Start | Length | Start sector | End sector
––––––––––––––––––––––––––––-
1 | 0:00.00 | 3:23.66 | 0 | 15290
2 | 3:23.66 | 5:37.16 | 15291 | 40581
3 | 9:01.07 | 5:16.25 | 40582 | 64306
4 | 14:17.32 | 5:13.34 | 64307 | 87815
5 | 19:30.66 | 2:10.47 | 87816 | 97612
6 | 21:41.38 | 4:37.69 | 97613 | 118456
7 | 26:19.32 | 4:17.00 | 118457 | 137731
8 | 30:36.32 | 4:28.41 | 137732 | 157872
9 | 35:04.73 | 4:07.48 | 157873 | 176445
10 | 39:12.46 | 3:32.72 | 176446 | 192417
11 | 42:45.43 | 5:32.02 | 192418 | 217319

Range status and errors

Selected range

Filename D:Marcus Fjellström – Schattenspieler.wav

Peak level 100.0 %
Extraction speed 0.4 X
Range quality 99.9 %
Test CRC BD43A0C7
Copy CRC BD43A0C7
Copy OK

No errors occurred

AccurateRip summary

Track 1 accurately ripped (confidence 1) [6B032363]
Track 2 accurately ripped (confidence 1) [689DB789]
Track 3 accurately ripped (confidence 1) [A0528411]
Track 4 accurately ripped (confidence 1) [E0C12789]
Track 5 accurately ripped (confidence 1) [0BCC7F73]
Track 6 accurately ripped (confidence 1) [7FB3BAB8]
Track 7 accurately ripped (confidence 1) [DC86BC56]
Track 8 accurately ripped (confidence 1) [E8D1E9A5]
Track 9 accurately ripped (confidence 1) [92E2C03F]
Track 10 accurately ripped (confidence 1) [B90D9E78]
Track 11 accurately ripped (confidence 1) [113665B8]

All tracks accurately ripped

End of status report

CUETools log
[CUETools log; Date: 12.10.2017 0:46:06; Version: 2.1.4]
[CTDB TOCID: HWCzVKN48bsXz7P2jVPZX0AFc94-] found.
Track | CTDB Status
1 | (1/1) Accurately ripped
2 | (1/1) Accurately ripped
3 | (1/1) Accurately ripped
4 | (1/1) Accurately ripped
5 | (1/1) Accurately ripped
6 | (1/1) Accurately ripped
7 | (1/1) Accurately ripped
8 | (1/1) Accurately ripped
9 | (1/1) Accurately ripped
10 | (1/1) Accurately ripped
11 | (1/1) Accurately ripped
[AccurateRip ID: 0013ecff-00ac0b75-8b0b510b] found.
Track [ CRC | V2 ] Status
01 [6b032363|ba31c655] (2+3/5) Accurately ripped
02 [689db789|545045c7] (2+3/5) Accurately ripped
03 [a0528411|ebdf7145] (2+3/5) Accurately ripped
04 [e0c12789|43b0ff48] (2+3/5) Accurately ripped
05 [0bcc7f73|288b4b21] (2+3/5) Accurately ripped
06 [7fb3bab8|1da53d75] (2+3/5) Accurately ripped
07 [dc86bc56|9b50b02d] (2+3/5) Accurately ripped
08 [e8d1e9a5|9a670adb] (2+3/5) Accurately ripped
09 [92e2c03f|bb082276] (2+3/5) Accurately ripped
10 [b90d9e78|8fece398] (2+3/5) Accurately ripped
11 [113665b8|9b110e6c] (2+3/5) Accurately ripped

Track Peak [ CRC32 ] [W/O NULL] [ LOG ]
– 100,0 [BD43A0C7] [7F59932C] CRC32
01 100,0 [5D33B177] [611091E7]
02 97,9 [F5C31FEC] [1C6F7F28]
03 98,7 [2CC66FBD] [095C556F]
04 98,7 [89D2B7F5] [0589DC51]
05 100,0 [9DE1AFAC] [56C5778F]
06 100,0 [D1152711] [808A734B]
07 91,5 [03147812] [799E97BA]
08 98,7 [51EA47A2] [AE4C54FA]
09 100,0 [C5DF2236] [F3F438AF]
10 98,7 [5BEA676E] [4C2EF566]
11 98,7 [93DA21E3] [92956EC8]

Thanks to karfagenius

Welcome to My Blog!

Marcus Fjellstrom – Schattenspieler (2010) Download, Warez, DDL, Free, Full Album, Torrent, Legal.

Download