Marc Bolan – Acoustic Warrior (1996)

Download
Marc Bolan - Acoustic Warrior (1996)

Marc Bolan – Acoustic Warrior (1996)
EAC Rip | FLAC (Img) + Cue + Log ~ 408 Mb | MP3 CBR320 ~ 168 Mb
Scans Included (JPG, 600 dpi) | RAR 5% Recovery
Acoustic, Glam Rock | Sony Music #486577-2

For the T. Rex fanatic – and, chances are, if you own more than two albums by Marc Bolan, you are – Acoustic Warrior is a fascinating collection, boasting 15 previously unreleased acoustic takes on such classic songs as "20th Century Boy," "Get It On," "Telegram Sam," "Metal Guru," "Jeepster," "Ballrooms of Mars," "Slider" and "Cosmic Dancer." There are no real revelations and the sound quality is a bit uneven, but there’s a ragged charm to these recordings that makes it worth seeking out for hardcore fans.

~ Stephen Thomas Erlewine, All Music
Wiki | Discogs | All Music

***************

Marc Bolan - Acoustic Warrior (1996)

Marc Bolan - Acoustic Warrior (1996)

Track List:

01. Spaceball Ricochet [5:00]
02. Metal Guru [1:46]
03. The Slider [3:50]
04. Jeepster [5:21]
05. Cosmic Dancer [6:08]
06. Main Man [6:09]
07. Ballrooms Of Mars [4:10]
08. Mystic Lady [2:36]
09. Girl [3:36]
10. Telegram Sam [3:54]
11. Seagull Woman [2:31]
12. Get It On [5:09]
13. Laser Love [3:45]
14. 20th Century Boy [3:56]
15. Debora [8:15]

EAC Log
Exact Audio Copy V1.3 from 2. September 2016

EAC extraction logfile from 10. October 2017, 17:46

Marc Bolan / Acoustic Warrior

Used drive : ATAPI iHAS122 C Adapter: 1 ID: 0

Read mode : Secure
Utilize accurate stream : Yes
Defeat audio cache : Yes
Make use of C2 pointers : No

Read offset correction : 6
Overread into Lead-In and Lead-Out : No
Fill up missing offset samples with silence : Yes
Delete leading and trailing silent blocks : No
Null samples used in CRC calculations : Yes
Used interface : Native Win32 interface for Win NT & 2000

Used output format : Internal WAV Routines
Sample format : 44.100 Hz; 16 Bit; Stereo

TOC of the extracted CD

Track | Start | Length | Start sector | End sector
––––––––––––––––––––––––––––-
1 | 0:00.00 | 5:00.00 | 0 | 22499
2 | 5:00.00 | 1:45.50 | 22500 | 30424
3 | 6:45.50 | 3:49.62 | 30425 | 47661
4 | 10:35.37 | 5:21.00 | 47662 | 71736
5 | 15:56.37 | 6:08.13 | 71737 | 99349
6 | 22:04.50 | 6:09.25 | 99350 | 127049
7 | 28:14.00 | 4:09.72 | 127050 | 145796
8 | 32:23.72 | 2:36.03 | 145797 | 157499
9 | 35:00.00 | 3:36.12 | 157500 | 173711
10 | 38:36.12 | 3:53.38 | 173712 | 191224
11 | 42:29.50 | 2:30.62 | 191225 | 202536
12 | 45:00.37 | 5:09.25 | 202537 | 225736
13 | 50:09.62 | 3:45.13 | 225737 | 242624
14 | 53:55.00 | 3:55.62 | 242625 | 260311
15 | 57:50.62 | 8:14.50 | 260312 | 297411

Range status and errors

Selected range

Filename C:UsersLondonDesktopMarc Bolan – Acoustic Warrior.wav

Peak level 99.2 %
Extraction speed 9.0 X
Range quality 100.0 %
Test CRC C0179753
Copy CRC C0179753
Copy OK

No errors occurred

AccurateRip summary

Track 1 accurately ripped (confidence 9) [CBFB7EF6] (AR v2)
Track 2 accurately ripped (confidence 10) [7F15B59B] (AR v2)
Track 3 accurately ripped (confidence 10) [F5E7CE10] (AR v2)
Track 4 accurately ripped (confidence 10) [9E987F67] (AR v2)
Track 5 accurately ripped (confidence 10) [8FE6D087] (AR v2)
Track 6 accurately ripped (confidence 10) [CA1F8104] (AR v2)
Track 7 accurately ripped (confidence 10) [7F70E261] (AR v2)
Track 8 accurately ripped (confidence 10) [8CAD5B4A] (AR v2)
Track 9 accurately ripped (confidence 10) [8519E72C] (AR v2)
Track 10 accurately ripped (confidence 10) [AB53E5D3] (AR v2)
Track 11 accurately ripped (confidence 10) [8E36EDAB] (AR v2)
Track 12 accurately ripped (confidence 10) [59A1B268] (AR v2)
Track 13 accurately ripped (confidence 10) [3B0FB4FD] (AR v2)
Track 14 accurately ripped (confidence 10) [90B5CB9A] (AR v2)
Track 15 accurately ripped (confidence 10) [E26CC60C] (AR v2)

All tracks accurately ripped

End of status report

–– CUETools DB Plugin V2.1.6

[CTDB TOCID: byXTPPtbBdbL6EmgkN5mNW2ZSA0-] found
Submit result: byXTPPtbBdbL6EmgkN5mNW2ZSA0- has been confirmed
Track | CTDB Status
1 | (13/13) Accurately ripped
2 | (13/13) Accurately ripped
3 | (13/13) Accurately ripped
4 | (13/13) Accurately ripped
5 | (13/13) Accurately ripped
6 | (13/13) Accurately ripped
7 | (13/13) Accurately ripped
8 | (13/13) Accurately ripped
9 | (13/13) Accurately ripped
10 | (13/13) Accurately ripped
11 | (13/13) Accurately ripped
12 | (13/13) Accurately ripped
13 | (13/13) Accurately ripped
14 | (13/13) Accurately ripped
15 | (13/13) Accurately ripped

==== Log checksum 8254266FF15B955E158976F609B13D707DC43E90F2890E618D1D94682AF5A213 ====

DR Log
foobar2000 1.2.6 / Dynamic Range Meter 1.1.1
log date: 2017-10-11 05:10:12

––––––––––––––––––––––––––––––––––––––––
Analyzed: Marc Bolan / Acoustic Warrior
––––––––––––––––––––––––––––––––––––––––

DR Peak RMS Duration Track
––––––––––––––––––––––––––––––––––––––––
DR12 -0.21 dB -13.31 dB 5:00 01-Spaceball Ricochet
DR13 -0.17 dB -15.57 dB 1:46 02-Metal Guru
DR14 -0.09 dB -15.56 dB 3:50 03-The Slider
DR13 -0.19 dB -14.78 dB 5:21 04-Jeepster
DR12 -0.20 dB -13.02 dB 6:08 05-Cosmic Dancer
DR12 -0.81 dB -14.98 dB 6:09 06-Main Man
DR13 -0.17 dB -15.62 dB 4:10 07-Ballrooms Of Mars
DR12 -0.17 dB -13.50 dB 2:36 08-Mystic Lady
DR12 -0.17 dB -14.07 dB 3:36 09-Girl
DR12 -0.17 dB -13.54 dB 3:54 10-Telegram Sam
DR12 -0.07 dB -14.80 dB 2:31 11-Seagull Woman
DR13 -0.09 dB -14.95 dB 5:09 12-Get It On
DR14 -0.23 dB -17.46 dB 3:45 13-Laser Love
DR13 -0.17 dB -15.03 dB 3:56 14-20th Century Boy
DR10 -0.62 dB -13.32 dB 8:15 15-Debora
––––––––––––––––––––––––––––––––––––––––

Number of tracks: 15
Official DR value: DR12

Samplerate: 44100 Hz
Channels: 2
Bits per sample: 16
Bitrate: 804 kbps
Codec: FLAC
================================================================================

CUETools Log
[CUETools log; Date: 11.10.2017 5:08:47; Version: 2.1.5]
[CTDB TOCID: byXTPPtbBdbL6EmgkN5mNW2ZSA0-] found.
Track | CTDB Status
1 | (14/14) Accurately ripped
2 | (14/14) Accurately ripped
3 | (14/14) Accurately ripped
4 | (14/14) Accurately ripped
5 | (14/14) Accurately ripped
6 | (14/14) Accurately ripped
7 | (14/14) Accurately ripped
8 | (14/14) Accurately ripped
9 | (14/14) Accurately ripped
10 | (14/14) Accurately ripped
11 | (14/14) Accurately ripped
12 | (14/14) Accurately ripped
13 | (14/14) Accurately ripped
14 | (14/14) Accurately ripped
15 | (14/14) Accurately ripped
[AccurateRip ID: 0023071d-018d0ae1-bc0f7d0f] found.
Track [ CRC | V2 ] Status
01 [db678306|cbfb7ef6] (05+09/14) Accurately ripped
02 [d0b0b76c|7f15b59b] (05+10/15) Accurately ripped
03 [9884a5f6|f5e7ce10] (05+10/15) Accurately ripped
04 [f6eb7e4f|9e987f67] (05+10/15) Accurately ripped
05 [f246fe02|8fe6d087] (05+10/15) Accurately ripped
06 [8a399480|ca1f8104] (05+10/15) Accurately ripped
07 [0b25f448|7f70e261] (05+10/15) Accurately ripped
08 [d0ca4ce5|8cad5b4a] (05+10/15) Accurately ripped
09 [72ce1612|8519e72c] (05+10/15) Accurately ripped
10 [caa80d91|ab53e5d3] (05+10/15) Accurately ripped
11 [05833b75|8e36edab] (05+10/15) Accurately ripped
12 [af3ebd29|59a1b268] (05+10/15) Accurately ripped
13 [f137c406|3b0fb4fd] (04+10/14) Accurately ripped
14 [73793c49|90b5cb9a] (04+10/14) Accurately ripped
15 [362e45de|e26cc60c] (04+10/14) Accurately ripped

Track Peak [ CRC32 ] [W/O NULL] [ LOG ]
– 99,2 [C0179753] [8346FE66] CRC32
01 97,6 [A04666DF] [ECB042B2]
02 98,0 [36A8680D] [8DEC7298]
03 98,9 [14E108E2] [3190D756]
04 97,8 [5A9B687C] [263C98A6]
05 97,7 [F18705E2] [BFBE37B6]
06 91,0 [46939DFD] [4CB47877]
07 98,0 [08A8E409] [1AEFF20A]
08 98,0 [55110F18] [0745F25A]
09 98,0 [C940648A] [DD674989]
10 98,0 [F64D8C60] [449E564D]
11 99,2 [EC84F872] [08BC8ABE]
12 99,0 [0F52476F] [476162E3]
13 97,3 [1FCFD967] [0C0C019C]
14 98,0 [E90375DA] [EB719587]
15 93,1 [98766E8D] [2AF930CE]

Marc Bolan - Acoustic Warrior (1996)

All thanks go to London

>>> Marc Bolan & T. Rex in my Blog <<<

Download from icerbox.com:

Marc Bolan – Acoustic Warrior (1996) Download, Warez, DDL, Free, Full Album, Torrent, Legal.

Download