Manchester Orchestra – A Black Mile to the Surface (2017)

Download
Hoops and Yoyo Ruin Christmas (2011)

Manchester Orchestra – A Black Mile to the Surface
XLD Rip | FLAC (tracks)+cue, log, front cover | 49:07 min | 291 MB
Label: Favorite Gentlemen ‎– LVR00173 | Tracks: 11 | Rls.date: 2017
Indie Rock

A Black Mile to the Surface is a bold record of vision and purpose, inspired by and dwelling in a sensory and imaginative experience. It’s a reinvention of sorts, both musically and personally-a sort of cosmic worldview shift. But in the end, the record’s themes are universal.

Inspired by their experience creating the score for the film Swiss Army Man, they seized the chance to rethink Manchester Orchestra’s typical methods of working. This process gave them new ideas of how to think about writing, how songs could flow, and how to layer melodies on top of one another to propel the tune into a new emotional arena. To manifest this vision, the band turned to producer Catherine Marks (Foals, PJ Harvey, The Killers, Interpol) and began working with her at Echo Mountain studio in Asheville. In addition to mixing with Marks at her Assault & Battery studio in London, Manchester Orchestra also worked with John Congleton (St. Vincent, Explosions In The Sky, Angel Olsen, Cloud Nothings) in Los Angeles – gathering new sounds, adding to and widening the songs’ dimensions. Encouraged to go against first instinct, each collaborator added their own touch to the music, pushing it to places no Manchester Orchestra record had ever gone before.

TRACKLIST
01. The Maze 02:58
02. The Gold 04:33
03. The Moth 04:36
04. Lead, SD 04:53
05. The Alien 05:28
06. The Sunshine 01:57
07. The Grocery 05:12
08. The Wolf 04:26
09. The Mistake 03:54
10. The Parts 04:13
11. The Silence 06:59

XLD Log
X Lossless Decoder version 20161007 (149.3)

XLD extraction logfile from 2017-07-28 15:51:27 +0200

Manchester Orchestra / A Black Mile To The Surface

Used drive : TS8XDVDS TRANSCEND (revision TW00)
Media type : Pressed CD

Ripper mode : XLD Secure Ripper
Disable audio cache : OK for the drive with a cache less than 1375KiB
Make use of C2 pointers : NO
Read offset correction : 6
Max retry count : 100
Gap status : Analyzed, Appended (except HTOA)

TOC of the extracted CD
Track | Start | Length | Start sector | End sector
––––––––––––––––––––––––––––-
1 | 00:00:00 | 02:58:23 | 0 | 13372
2 | 02:58:23 | 04:33:05 | 13373 | 33852
3 | 07:31:28 | 04:35:73 | 33853 | 54550
4 | 12:07:26 | 04:53:69 | 54551 | 76594
5 | 17:01:20 | 05:28:70 | 76595 | 101264
6 | 22:30:15 | 01:57:13 | 101265 | 110052
7 | 24:27:28 | 05:12:31 | 110053 | 133483
8 | 29:39:59 | 04:26:57 | 133484 | 153490
9 | 34:06:41 | 03:54:70 | 153491 | 171110
10 | 38:01:36 | 04:12:71 | 171111 | 190081
11 | 42:14:32 | 06:59:07 | 190082 | 221513

AccurateRip Summary
Disc not found in AccurateRip DB.

All Tracks
Album gain : -8.50 dB
Peak : 0.990875
Statistics
Read error : 0
Jitter error (maybe fixed) : 0
Retry sector count : 0
Damaged sector count : 0

Track 01
Filename : /Volumes/LaCie 1 DL/Manchester Orchestra -2017- A Black Mile To The Surface (FLAC) /01 – The Maze.flac
Pre-gap length : 00:02:00

Track gain : -7.98 dB
Peak : 0.987366
CRC32 hash (test run) : 6211F626
CRC32 hash : 6211F626
CRC32 hash (skip zero) : 87474AFE
AccurateRip v1 signature : C7085919
AccurateRip v2 signature : B8B5C9CA
->Track not present in AccurateRip database.
Statistics
Read error : 0
Jitter error (maybe fixed) : 0
Retry sector count : 0
Damaged sector count : 0

Track 02
Filename : /Volumes/LaCie 1 DL/Manchester Orchestra -2017- A Black Mile To The Surface (FLAC) /02 – The Gold.flac

Track gain : -9.50 dB
Peak : 0.989105
CRC32 hash (test run) : 365EEAC4
CRC32 hash : 365EEAC4
CRC32 hash (skip zero) : 5453B56C
AccurateRip v1 signature : CC030F08
AccurateRip v2 signature : E52CAD92
->Track not present in AccurateRip database.
Statistics
Read error : 0
Jitter error (maybe fixed) : 0
Retry sector count : 0
Damaged sector count : 0

Track 03
Filename : /Volumes/LaCie 1 DL/Manchester Orchestra -2017- A Black Mile To The Surface (FLAC) /03 – The Moth.flac

Track gain : -9.31 dB
Peak : 0.990875
CRC32 hash (test run) : 3D03BDD2
CRC32 hash : 3D03BDD2
CRC32 hash (skip zero) : E8F139C9
AccurateRip v1 signature : E8BEDA4D
AccurateRip v2 signature : 760C55B0
->Track not present in AccurateRip database.
Statistics
Read error : 0
Jitter error (maybe fixed) : 0
Retry sector count : 0
Damaged sector count : 0

Track 04
Filename : /Volumes/LaCie 1 DL/Manchester Orchestra -2017- A Black Mile To The Surface (FLAC) /04 – Lead, SD.flac

Track gain : -8.53 dB
Peak : 0.988037
CRC32 hash (test run) : 85097749
CRC32 hash : 85097749
CRC32 hash (skip zero) : E5C54096
AccurateRip v1 signature : 3022ED26
AccurateRip v2 signature : F43127DF
->Track not present in AccurateRip database.
Statistics
Read error : 0
Jitter error (maybe fixed) : 0
Retry sector count : 0
Damaged sector count : 0

Track 05
Filename : /Volumes/LaCie 1 DL/Manchester Orchestra -2017- A Black Mile To The Surface (FLAC) /05 – The Alien.flac

Track gain : -5.48 dB
Peak : 0.986267
CRC32 hash (test run) : 0807E43F
CRC32 hash : 0807E43F
CRC32 hash (skip zero) : 13AE85A1
AccurateRip v1 signature : BE00C55B
AccurateRip v2 signature : E0BBB7EA
->Track not present in AccurateRip database.
Statistics
Read error : 0
Jitter error (maybe fixed) : 0
Retry sector count : 0
Damaged sector count : 0

Track 06
Filename : /Volumes/LaCie 1 DL/Manchester Orchestra -2017- A Black Mile To The Surface (FLAC) /06 – The Sunshine.flac

Track gain : -2.12 dB
Peak : 0.988129
CRC32 hash (test run) : 85674B36
CRC32 hash : 85674B36
CRC32 hash (skip zero) : A83BF13D
AccurateRip v1 signature : 82C643F4
AccurateRip v2 signature : DE7D3788
->Track not present in AccurateRip database.
Statistics
Read error : 0
Jitter error (maybe fixed) : 0
Retry sector count : 0
Damaged sector count : 0

Track 07
Filename : /Volumes/LaCie 1 DL/Manchester Orchestra -2017- A Black Mile To The Surface (FLAC) /07 – The Grocery.flac

Track gain : -7.67 dB
Peak : 0.988403
CRC32 hash (test run) : 0EC915D4
CRC32 hash : 0EC915D4
CRC32 hash (skip zero) : F3F4DF94
AccurateRip v1 signature : A771E68E
AccurateRip v2 signature : 6F8AD531
->Track not present in AccurateRip database.
Statistics
Read error : 0
Jitter error (maybe fixed) : 0
Retry sector count : 0
Damaged sector count : 0

Track 08
Filename : /Volumes/LaCie 1 DL/Manchester Orchestra -2017- A Black Mile To The Surface (FLAC) /08 – The Wolf.flac

Track gain : -8.51 dB
Peak : 0.987549
CRC32 hash (test run) : 0E8DA2A7
CRC32 hash : 0E8DA2A7
CRC32 hash (skip zero) : 72C5D9A2
AccurateRip v1 signature : A9CB0250
AccurateRip v2 signature : 0BF51B06
->Track not present in AccurateRip database.
Statistics
Read error : 0
Jitter error (maybe fixed) : 0
Retry sector count : 0
Damaged sector count : 0

Track 09
Filename : /Volumes/LaCie 1 DL/Manchester Orchestra -2017- A Black Mile To The Surface (FLAC) /09 – The Mistake.flac

Track gain : -8.42 dB
Peak : 0.989899
CRC32 hash (test run) : 3C200F4C
CRC32 hash : 3C200F4C
CRC32 hash (skip zero) : 0B6E59A0
AccurateRip v1 signature : 9F1F532C
AccurateRip v2 signature : C886A3CD
->Track not present in AccurateRip database.
Statistics
Read error : 0
Jitter error (maybe fixed) : 0
Retry sector count : 0
Damaged sector count : 0

Track 10
Filename : /Volumes/LaCie 1 DL/Manchester Orchestra -2017- A Black Mile To The Surface (FLAC) /10 – The Parts.flac

Track gain : -3.63 dB
Peak : 0.984344
CRC32 hash (test run) : 39DF502E
CRC32 hash : 39DF502E
CRC32 hash (skip zero) : CC97BB8C
AccurateRip v1 signature : 0FB2F767
AccurateRip v2 signature : D8E5ED76
->Track not present in AccurateRip database.
Statistics
Read error : 0
Jitter error (maybe fixed) : 0
Retry sector count : 0
Damaged sector count : 0

Track 11
Filename : /Volumes/LaCie 1 DL/Manchester Orchestra -2017- A Black Mile To The Surface (FLAC) /11 – The Silence.flac

Track gain : -8.61 dB
Peak : 0.986450
CRC32 hash (test run) : 0ACE3797
CRC32 hash : 0ACE3797
CRC32 hash (skip zero) : 1E92A794
AccurateRip v1 signature : 743F3E20
AccurateRip v2 signature : 58D02B2A
->Track not present in AccurateRip database.
Statistics
Read error : 0
Jitter error (maybe fixed) : 0
Retry sector count : 0
Damaged sector count : 0

No errors occurred

End of status report

––-BEGIN XLD SIGNATURE––-
URbIyGGpO9eULUhDUUos84649yWOOOKvTLrfTDtupsevQuvJ6qNx5.EK8OtdOK8_w58Ov1AVm8oj9nGxR5fdPd3oilPJSrHmvOViifK
––-END XLD SIGNATURE––-

Thanks to the Original customer.

Manchester Orchestra – A Black Mile to the Surface (2017) Download, Warez, DDL, Free, Full Album, Torrent, Legal.

Download