Magnum – Marauder (1980) [Japanese Ed. 2006]

Download
Magnum - Marauder (1980) [Japanese Ed. 2006]

Magnum – Marauder (1980) [Japanese Ed. 2006]
EAC Rip | FLAC: Image+Cue+Log | 599 Mb | MP3 CBR 320 kbps | 191 Mb | Scans | Time: 01:18:48
Arcàngelo | ARC-7161
Classic Rock, Progressive/Art Rock

Marauder is a live album by the English rock band Magnum. It was released in 1980 on Jet Records. Magnum recorded Marauder over one night at London’s Marquee Club on 15 December 1979. It was an attempt by Jet Records to revive the success of the debut album Kingdom of Madness following the failure of Magnum II. The album was recorded on multi-track by former-Ten Years After bass player Leo Lyons, who had recorded Magnum II, and mixed by Chris Tsangarides.

The 2005 expanded version of the album was reissued on 22 September 2006 in Japan with Mini LP/paper sleeve packaging through Arcangelo. The album was also included in a limited edition Japanese box set, comprising all six of Sanctuary Records expanded and remastered releases with Mini LP/Paper Sleeve packaging.

Magnum - Marauder (1980) [Japanese Ed. 2006]
Magnum
Magnum Biography | Wikipedia
Magnum - Marauder (1980) [Japanese Ed. 2006]

Track Listing

01. If I Could Live Forever (04:07)
02. The Battle (02:21)
03. Foolish Heart (03:08)
04. In The Beginning (07:57)
05. Reborn (05:59)
06. Changes (03:52)
07. So Cold The Night (04:33)
08. Lords Of Chaos (03:49)

Bonus tracks
09. All Of My Life (taken from Live at The Marquee EP) (06:18)
10. Great Adventure (taken from Live at The Marquee EP) (04:24)
11. Invasion (taken from Live at The Marquee EP) (03:55)
12. Kingdom Of Madness (taken from Live at The Marquee EP) (04:09)
13. Reborn (recorded live in Nashville, Tennessee, 1982) (05:38)
14. Changes (recorded live in Nashville, Tennessee, 1982) (03:13)
15. All Of My Life (recorded live in Nashville, Tennessee, 1982) (06:14)
16. Invasion (recorded live in Nashville, Tennessee, 1982) (05:10)
17. Kingdom Of Madness (recorded live in Nashville, Tennessee, 1982) (04:02)

Produced by Leo Lyons

The Band

• Bob Catley – Vocals
• Tony Clarkin – Guitar
• Wally Lowe – Bass
• Kex Gorin – Drums
• Richard Bailey – Keyboards, Flute (on 1 – 12)
• Mark Stanway – Keyboards (on 13 – 17)

Notes

Arcàngelo Art-Rock Series

Reissue, Remastered

Comes in a CD sized papersleeve album replica.

EAC Log
Exact Audio Copy V0.99 prebeta 4 from 23. January 2008

Отчёт EAC об извлечении, выполненном 28. февраля 2016, 16:53

Magnum / Marauder

Дисковод: Optiarc DVD RW AD-7200A Adapter: 0 ID: 0

Режим чтения : Достоверность
Использование точного потока : Да
Отключение кэша аудио : Да
Использование указателей C2 : Нет

Коррекция смещения при чтении : 48
Способность читать области Lead-in и Lead-out : Нет
Заполнение пропущенных сэмплов тишиной : Да
Удаление блоков с тишиной в начале и конце : Нет
При вычислениях CRC использовались нулевые сэмплы : Да
Интерфейс : Встроенный Win32-интерфейс для Win NT/2000

Выходной формат : Пользовательский кодировщик
Выбранный битрейт : 768 kBit/s
Качество : Высокий
Добавление ID3-тэга : Нет
Утилита сжатия : C:Program FilesExact Audio CopyFlacflac.exe
Дополнительные параметры : -6 -V -T "ARTIST=%a" -T "TITLE=%t" -T "ALBUM=%g" -T "DATE=%y" -T "TRACKNUMBER=%n" -T "GENRE=%m" -T "COMMENT=%e" %s -o %d

TOC извлечённого CD

Трек | Старт | Длительность | Начальный сектор | Конечный сектор
––––––––––––––––––––––––––––––––––-
1 | 0:00.00 | 4:06.39 | 0 | 18488
2 | 4:06.39 | 2:21.11 | 18489 | 29074
3 | 6:27.50 | 3:08.16 | 29075 | 43190
4 | 9:35.66 | 7:57.05 | 43191 | 78970
5 | 17:32.71 | 5:58.53 | 78971 | 105873
6 | 23:31.49 | 3:51.52 | 105874 | 123250
7 | 27:23.26 | 4:33.19 | 123251 | 143744
8 | 31:56.45 | 3:48.36 | 143745 | 160880
9 | 35:45.06 | 6:17.56 | 160881 | 189211
10 | 42:02.62 | 4:24.12 | 189212 | 209023
11 | 46:26.74 | 3:55.19 | 209024 | 226667
12 | 50:22.18 | 4:09.13 | 226668 | 245355
13 | 54:31.31 | 5:37.39 | 245356 | 270669
14 | 60:08.70 | 3:13.00 | 270670 | 285144
15 | 63:21.70 | 6:13.59 | 285145 | 313178
16 | 69:35.54 | 5:09.47 | 313179 | 336400
17 | 74:45.26 | 4:01.65 | 336401 | 354540

Характеристики диапазона извлечения и сообщения об ошибках

Выбранный диапазон

Имя файла D:Magnum – 1980 – MoroderMagnum – Marauder.wav

Пиковый уровень 100.0 %
Качество диапазона 100.0 %
CRC копии 9A8B17A5
Копирование… OK

Ошибок не произошло

AccurateRip: сводка

Трек 1 точность не определена (достоверность 2) [634CADF9], AccurateRip вернул [61DB3173]
Трек 2 точность не определена (достоверность 2) [67AF59F1], AccurateRip вернул [DAC12251]
Трек 3 точность не определена (достоверность 2) [23964109], AccurateRip вернул [0B3786CF]
Трек 4 точность не определена (достоверность 2) [390C692F], AccurateRip вернул [5920E1BB]
Трек 5 точность не определена (достоверность 2) [28271EFA], AccurateRip вернул [0C5461E9]
Трек 6 точность не определена (достоверность 1) [85845BBC], AccurateRip вернул [BBEF0C81]
Трек 7 точность не определена (достоверность 2) [35184FC1], AccurateRip вернул [8F91A37A]
Трек 8 точность не определена (достоверность 2) [1A771D99], AccurateRip вернул [8375D6E3]
Трек 9 точность не определена (достоверность 2) [8B99CB4B], AccurateRip вернул [79EF4E3D]
Трек 10 точность не определена (достоверность 2) [439E4E5D], AccurateRip вернул [5E8061DC]
Трек 11 точность не определена (достоверность 2) [544DC894], AccurateRip вернул [2B49D04A]
Трек 12 точность не определена (достоверность 2) [9BD75EBA], AccurateRip вернул [4FF81B91]
Трек 13 точность не определена (достоверность 1) [141F5DAB], AccurateRip вернул [90E92269]
Трек 14 точность не определена (достоверность 1) [33B7F8BE], AccurateRip вернул [0BE5ED1F]
Трек 15 точность не определена (достоверность 1) [399CE201], AccurateRip вернул [8AFC4846]
Трек 16 точность не определена (достоверность 1) [0D7FF3C6], AccurateRip вернул [A3A2A329]
Трек 17 точность не определена (достоверность 1) [D9028104], AccurateRip вернул [F4BD3264]

Ни один трек не прошёл проверки на точность
В вашей базе может быть иной вариант штамповки диска

Конец отчёта

Many thanks to the original uploader: codomm

Bob Catley and many, many more!
Bob Catley 1998 The Tower + 1999 Live At The Gods (Official Bootleg) [Japanese Ed. 2000] 2CD
Bob Catley 1999 Legends [Japanese Ed. 2000]
Bob Catley 2001 Middle Earth [Japanese Ed.]
Bob Catley 2003 When Empires Burns [Japanese Ed.]
Bob Catley 2006 Spirit Of Man [Japanese Ed.]
Bob Catley 2008 Immortal [Japanese Ed.]

Escape 2012 Unbreakable
Escape 2013 Borderline

Hard Rain 1997 Hard Rain [Japan 1st Press, Promo]

Magnum 1978 Kingdom Of Madness [Japanese Ed. 2006] 2CD
Magnum 1979 Magnum II [Japanese Ed. 2006]
Magnum 1985 On A Storyteller’s Night [Japanese Ed. 2006] 2CD
Magnum 2014 Escape From The Shadow Garden [Digipak Ed.] CD+DVD
Magnum 2014 Escape From The Shadow Garden [Japanese Ed.] 2CD

Pulse 2002 Pulse
Pulse 2004 Worlds Apart

Ten 2012 Heresy And Creed [Japanese Ed.]
Ten 2014 Albion [Japanese Ed.]

……
Welcome to My Blog for more wonderful music!
……

Magnum – Marauder (1980) [Japanese Ed. 2006] Download, Warez, DDL, Free, Full Album, Torrent, Legal.

Download