Magnum – Magnum II (1979) [Japanese Ed. 2006]

Download
Magnum - Magnum II (1979) [Japanese Ed. 2006]

Magnum – Magnum II (1979) [Japanese Ed. 2006]
EAC Rip | FLAC: Image+Cue+Log | 443 Mb | MP3 CBR 320 kbps | 140 Mb | Scans | Time: 57:18
Arcàngelo | ARC-7160
Classic Rock, Progressive/Art Rock

Magnum II is the second studio album by the English rock band Magnum. It was released in 1979 on Jet Records. Magnum II followed on from the success of Magnum’s debut album, Kingdom of Madness. Recorded with former-Ten Years After bass player Leo Lyons, who had success with producing Phenomenon, Force It and No Heavy Petting for UFO.

The 2005 expanded version of the album was reissued on 22 September 2006 in Japan with Mini LP/Paper Sleeve packaging through Arcangelo. The album was also included in a limited edition Japanese Box Set, comprising all six of Sanctuary Records Expanded and Remastered releases with Mini LP/Paper Sleeve packaging. The set included an outer box featuring Magnum’s Chase the Dragon artwork.

Magnum - Magnum II (1979) [Japanese Ed. 2006]
Magnum
Magnum Biography | Wikipedia
Magnum - Magnum II (1979) [Japanese Ed. 2006]

Track Listing

01. Great Adventure (04:53)
02. Changes (03:16)
03. The Battle (02:10)
04. If I Could Live Forever (04:03)
05. Reborn (05:46)
06. So Cold The Night (04:05)
07. Foolish Heart (03:13)
08. Stayin’ Alive (03:22)
09. Firebird (04:48)
10. All Of My Life (04:44)

Bonus tracks
11. Lonesome Star (7 inch Single B-Side) (03:13)
12. Changes (Remix Version) (04:12)
13. Everybody Needs (7 inch Single B-Side) (02:53)
14. Changes (Live 7 inch Single B-Side) (03:44)
15. Foolish Heart (Acoustic Version) (02:57)

Produced by Leo Lyons

The Band

• Bob Catley – Vocals
• Tony Clarkin – Guitar
• Wally Lowe – Bass
• Richard Bailey – Keyboards, Flute
• Kex Gorin – Drums

Notes

Arcàngelo Art-Rock Series

Reissue, Remastered

Comes in a CD-sized papersleeve album replica, with obi-strip and insert of notes mostly in Japanese.

EAC Log
Exact Audio Copy V0.99 prebeta 4 from 23. January 2008

Отчёт EAC об извлечении, выполненном 28. февраля 2016, 16:26

Magnum / Magnum II

Дисковод: Optiarc DVD RW AD-7200A Adapter: 0 ID: 0

Режим чтения : Достоверность
Использование точного потока : Да
Отключение кэша аудио : Да
Использование указателей C2 : Нет

Коррекция смещения при чтении : 48
Способность читать области Lead-in и Lead-out : Нет
Заполнение пропущенных сэмплов тишиной : Да
Удаление блоков с тишиной в начале и конце : Нет
При вычислениях CRC использовались нулевые сэмплы : Да
Интерфейс : Встроенный Win32-интерфейс для Win NT/2000

Выходной формат : Пользовательский кодировщик
Выбранный битрейт : 768 kBit/s
Качество : Высокий
Добавление ID3-тэга : Нет
Утилита сжатия : C:Program FilesExact Audio CopyFlacflac.exe
Дополнительные параметры : -6 -V -T "ARTIST=%a" -T "TITLE=%t" -T "ALBUM=%g" -T "DATE=%y" -T "TRACKNUMBER=%n" -T "GENRE=%m" -T "COMMENT=%e" %s -o %d

TOC извлечённого CD

Трек | Старт | Длительность | Начальный сектор | Конечный сектор
––––––––––––––––––––––––––––––––––-
1 | 0:00.00 | 4:53.13 | 0 | 21987
2 | 4:53.13 | 3:15.56 | 21988 | 36668
3 | 8:08.69 | 2:10.16 | 36669 | 46434
4 | 10:19.10 | 4:02.39 | 46435 | 64623
5 | 14:21.49 | 5:45.60 | 64624 | 90558
6 | 20:07.34 | 4:04.62 | 90559 | 108920
7 | 24:12.21 | 3:13.09 | 108921 | 123404
8 | 27:25.30 | 3:22.06 | 123405 | 138560
9 | 30:47.36 | 4:47.42 | 138561 | 160127
10 | 35:35.03 | 4:43.43 | 160128 | 181395
11 | 40:18.46 | 3:13.10 | 181396 | 195880
12 | 43:31.56 | 4:11.43 | 195881 | 214748
13 | 47:43.24 | 2:52.52 | 214749 | 227700
14 | 50:36.01 | 3:44.07 | 227701 | 244507
15 | 54:20.08 | 2:57.07 | 244508 | 257789

Характеристики диапазона извлечения и сообщения об ошибках

Выбранный диапазон

Имя файла D:Magnum – 1979 – IIMagnum – Magnum II.wav

Пиковый уровень 100.0 %
Качество диапазона 99.9 %
CRC копии 28B5FD8B
Копирование… OK

Ошибок не произошло

AccurateRip: сводка

Трек 1 точность не определена (достоверность 1) [24831533], AccurateRip вернул [94640806]
Трек 2 точность не определена (достоверность 1) [96666E6E], AccurateRip вернул [8F1F3D64]
Трек 3 точность не определена (достоверность 1) [C3175B11], AccurateRip вернул [11CD20F9]
Трек 4 точность не определена (достоверность 1) [33325345], AccurateRip вернул [F13B6D44]
Трек 5 точность не определена (достоверность 1) [4461727D], AccurateRip вернул [4720F0E2]
Трек 6 точность не определена (достоверность 1) [E17FB427], AccurateRip вернул [ECCDCC13]
Трек 7 точность не определена (достоверность 1) [537C3CF4], AccurateRip вернул [276CAF31]
Трек 8 точность не определена (достоверность 1) [D7FB749C], AccurateRip вернул [88B40A9E]
Трек 9 точность не определена (достоверность 1) [E07D64B5], AccurateRip вернул [6E8EF2FC]
Трек 10 точность не определена (достоверность 1) [B53ED3AB], AccurateRip вернул [B5325EE2]
Трек 11 точность не определена (достоверность 1) [D8E64594], AccurateRip вернул [53B090D4]
Трек 12 точность не определена (достоверность 1) [575B3867], AccurateRip вернул [82B0C429]
Трек 13 точность не определена (достоверность 1) [FE4C95AF], AccurateRip вернул [9C5F60A0]
Трек 14 точность не определена (достоверность 1) [57A2A40D], AccurateRip вернул [4C02C7E8]
Трек 15 точность не определена (достоверность 1) [46A062C2], AccurateRip вернул [900C73AD]

Ни один трек не прошёл проверки на точность
В вашей базе может быть иной вариант штамповки диска

Конец отчёта

Many thanks to the original uploader: codomm

Bob Catley and many, many more!
Bob Catley 1998 The Tower + 1999 Live At The Gods (Official Bootleg) [Japanese Ed. 2000] 2CD
Bob Catley 1999 Legends [Japanese Ed. 2000]
Bob Catley 2001 Middle Earth [Japanese Ed.]
Bob Catley 2003 When Empires Burns [Japanese Ed.]
Bob Catley 2006 Spirit Of Man [Japanese Ed.]
Bob Catley 2008 Immortal [Japanese Ed.]

Escape 2012 Unbreakable
Escape 2013 Borderline

Hard Rain 1997 Hard Rain [Japan 1st Press, Promo]

Magnum 1978 Kingdom Of Madness [Japanese Ed. 2006] 2CD
Magnum 1985 On A Storyteller’s Night [Japanese Ed. 2006] 2CD
Magnum 2014 Escape From The Shadow Garden [Digipak Ed.] CD+DVD
Magnum 2014 Escape From The Shadow Garden [Japanese Ed.] 2CD

Pulse 2002 Pulse
Pulse 2004 Worlds Apart

Ten 2012 Heresy And Creed [Japanese Ed.]
Ten 2014 Albion [Japanese Ed.]

……
Welcome to My Blog for more wonderful music!
……

Magnum – Magnum II (1979) [Japanese Ed. 2006] Download, Warez, DDL, Free, Full Album, Torrent, Legal.

Download