Madonna – Hard Candy (2008)

Download
Madonna - Hard Candy (2008)

Madonna – Hard Candy (2008)
EAC | Flac(Image) + Cue + Log & MP3 CBR 320Kbps
Warner Bros., 9362-49884-9 | ~ 407 or 1343 Mb | Scans(png) -> 449 Mb
Pop / Electronic / Dance

All through her career, it has been impossible to divorce Madonna’s music from her image, as they feed off each other to the point where it’s hard to tell which came first, the concept or the songs. Glancing at the aggressively ugly cover to Hard Candy – its blistering pinks and assaultive leather suggesting cheap bottom-barrel porno – it’s hard not to wish that this is the one time Madge broke from tradition, offering music that wasn’t quite as garish as her graphics. That is not the case. Hard Candy is all brutal hard edges and blaring primary colors, a relentlessly mercenary collection of cold beats and chilly innuendo. Sex has always been a driving force for Madonna, but she’s never been as ruthlessly pornographic as she is here, not even when she cut Erotica as a companion to her softcore coffee-table book Sex back in 1992. For all of its carnality, Erotica was coy, belonging to the classic burlesque teasing tradition, but Hard Candy is utterly modern, a steely sex album for the age of Cialis. This new millennium is also an era when Top 40 has pretty much ceased to exist and a pop artist as sharp as Madonna knows this, so she has abandoned the idea of a big crossover hit – the kind that Erotica courted with such gorgeous, shimmering adult contemporary ballads as "Rain" and "Bad Girl" – and pitches Hard Candy directly toward her core audience of club-conscious, fashion-forward trendsetters.
This is a smart play, as this is the audience that has always consisted of Madonna loyalists, and it’s also is a savvy way to negotiate the explosion of niches in 2008, but there are problems in her execution. Madonna relies on the Neptunes and the pair of Timbaland and Justin Timberlake for most of her modern makeover – a good idea in theory as they are some of the biggest hitmakers of the decade, but the productions they’ve constructed here sound a couple years old at best and at worst feel like they’re dressing Madonna in Nelly Furtado’s promiscuous hand-me-downs. Sometimes this can result in reasonably appealing grooves – "Candy Shop" captures Pharrell Williams’ flair for slim, sleek grooves, "Dance 2night" conjures Timberlake’s Off the Wall obsession nicely, and the icy heartbreak of "Miles Away" is a worthy successor to "What Goes Around Comes Around" – but this also points out the album’s main flaw: the track comes before the song. Madonna’s greatness has always hinged on how she channeled dance trends into pop songs, placing equal emphasis on sound and melody, which provided a neat way to sneak underground club trends into the mainstream. Here, she cedes melodic hooks to rhythmic hooks – witness the clanging, cluttered "4 Minutes," where she’s drowned out by Timbaland’s farting four-note synth – which might not have been so bad if the tracks were fresher and if the whole enterprise didn’t feel quite so joylessly mechanical. Madonna doesn’t even sound desperate to sit atop current trends; rather, she’s following them because she’s expected to do so. There’s a palpable sense of disinterest here, as if she just handed the reins over to Pharrell and Timba-Lake, trusting them to polish up this piece of stale candy. Maybe she’s not into the music; maybe she’s just running out this last album for Warner before she moves onto the greener pastures of Live Nation – either way, Hard Candy is a rare thing: a lifeless Madonna album.

by Stephen Thomas Erlewine, allmusic

Madonna - Hard Candy (2008)

Madonna at Wiki | Madonna at Discogs | Madonna at Allmusic | Madonna HomePage

***********

Madonna – Hard Candy (2008):

Madonna - Hard Candy (2008)

Tracklist:

01. Candy Shop [0:04:15.58]
02. 4 Minutes (feat. Justin Timberlake And Timbaland) [0:04:03.66]
03. Give It 2 Me [0:04:47.68]
04. Heartbeat [0:04:03.28]
05. Miles Away [0:04:48.69]
06. She’s Not Me [0:06:04.38]
07. Incredible [0:06:19.38]
08. Beat Goes On (feat. Kanye West) [0:04:26.67]
09. Dance 2Night [0:05:03.07]
10. Spanish Lesson [0:03:37.45]
11. Devil Wouldn’t Recognize You [0:05:08.57]
12. Voices [0:03:39.35]

EAC Log
Exact Audio Copy V1.3 from 2. September 2016

EAC extraction logfile from 25. December 2016, 0:26

Madonna / Hard Candy

Used drive : PLEXTOR DVDR PX-810SA Adapter: 1 ID: 0

Read mode : Secure
Utilize accurate stream : Yes
Defeat audio cache : Yes
Make use of C2 pointers : No

Read offset correction : 48
Overread into Lead-In and Lead-Out : No
Fill up missing offset samples with silence : Yes
Delete leading and trailing silent blocks : No
Null samples used in CRC calculations : Yes
Used interface : Installed external ASPI interface

Used output format : User Defined Encoder
Selected bitrate : 1024 kBit/s
Quality : High
Add ID3 tag : No
Command line compressor : C:Program Files (x86)Exact Audio CopyFlacflac.exe
Additional command line options : -8 -V -T "Date=%year%" -T "Genre=%genre%" -T "COMMENT=ripped by bvstudio®" %source%

TOC of the extracted CD

Track | Start | Length | Start sector | End sector
––––––––––––––––––––––––––––-
1 | 0:00.00 | 4:15.58 | 0 | 19182
2 | 4:15.58 | 4:03.66 | 19183 | 37473
3 | 8:19.49 | 4:47.68 | 37474 | 59066
4 | 13:07.42 | 4:03.28 | 59067 | 77319
5 | 17:10.70 | 4:48.69 | 77320 | 98988
6 | 21:59.64 | 6:04.38 | 98989 | 126326
7 | 28:04.27 | 6:19.38 | 126327 | 154789
8 | 34:23.65 | 4:26.67 | 154790 | 174806
9 | 38:50.57 | 5:03.07 | 174807 | 197538
10 | 43:53.64 | 3:37.45 | 197539 | 213858
11 | 47:31.34 | 5:08.57 | 213859 | 237015
12 | 52:40.16 | 3:39.35 | 237016 | 253475

Range status and errors

Selected range

Filename F:Madonna – Discography2008 – Hard Candy (2008 – Warner Bros. Records Inc. – Germany – 9362-49884-9)Madonna – Hard Candy.wav

Peak level 99.9 %
Extraction speed 7.2 X
Range quality 100.0 %
Test CRC 143BA998
Copy CRC 143BA998
Copy OK

No errors occurred

AccurateRip summary

Track 1 accurately ripped (confidence 200) [EED6FE4B] (AR v2)
Track 2 accurately ripped (confidence 200) [5EB0151E] (AR v2)
Track 3 accurately ripped (confidence 200) [331E5D96] (AR v2)
Track 4 accurately ripped (confidence 200) [33D5F3CD] (AR v2)
Track 5 accurately ripped (confidence 200) [592C52D6] (AR v2)
Track 6 accurately ripped (confidence 200) [0F8BB1E5] (AR v2)
Track 7 accurately ripped (confidence 200) [45CB3199] (AR v2)
Track 8 accurately ripped (confidence 200) [129F9F90] (AR v2)
Track 9 accurately ripped (confidence 200) [DDA76DBE] (AR v2)
Track 10 accurately ripped (confidence 200) [06025086] (AR v2)
Track 11 accurately ripped (confidence 200) [9017AA2D] (AR v2)
Track 12 accurately ripped (confidence 200) [65B0AB76] (AR v2)

All tracks accurately ripped

End of status report

–– CUETools DB Plugin V2.1.6

[CTDB TOCID: p3cz8JW9EXMkEMUDpYJ7oYBDbkE-] found
Submit result: p3cz8JW9EXMkEMUDpYJ7oYBDbkE- has been confirmed
Track | CTDB Status
1 | (787/796) Accurately ripped
2 | (792/796) Accurately ripped
3 | (792/796) Accurately ripped
4 | (793/796) Accurately ripped
5 | (792/796) Accurately ripped
6 | (792/796) Accurately ripped
7 | (793/796) Accurately ripped
8 | (794/796) Accurately ripped
9 | (791/796) Accurately ripped
10 | (792/796) Accurately ripped
11 | (794/796) Accurately ripped
12 | (786/796) Accurately ripped

==== Log checksum 8F4CF21DE55BA6A8C865BAB84323EEC87280CD2CE2754349D2CC8E6EF07FFD7A ====

DR Log
foobar2000 1.2.9 / Dynamic Range Meter 1.1.1
log date: 2017-02-09 23:51:54

––––––––––––––––––––––––––––––––––––––––
Analyzed: Madonna / Hard Candy
––––––––––––––––––––––––––––––––––––––––

DR Peak RMS Duration Track
––––––––––––––––––––––––––––––––––––––––
DR6 0.00 dB -6.90 dB 4:16 01-Candy Shop
DR5 -0.01 dB -6.54 dB 4:04 02-4 Minutes (feat. Justin Timberlake And Timbaland)
DR5 0.00 dB -6.19 dB 4:48 03-Give It 2 Me
DR6 -0.01 dB -7.21 dB 4:03 04-Heartbeat
DR5 -0.01 dB -6.59 dB 4:49 05-Miles Away
DR5 0.00 dB -6.54 dB 6:05 06-She’s Not Me
DR5 -0.01 dB -5.74 dB 6:20 07-Incredible
DR5 -0.01 dB -6.00 dB 4:27 08-Beat Goes On (feat. Kanye West)
DR6 -0.01 dB -7.42 dB 5:03 09-Dance 2Night
DR5 0.00 dB -6.51 dB 3:38 10-Spanish Lesson
DR6 -0.01 dB -8.11 dB 5:09 11-Devil Wouldn’t Recognize You
DR4 -0.82 dB -6.08 dB 3:39 12-Voices
––––––––––––––––––––––––––––––––––––––––

Number of tracks: 12
Official DR value: DR5

Samplerate: 44100 Hz
Channels: 2
Bits per sample: 16
Bitrate: 981 kbps
Codec: FLAC

CUETools Log
[CUETools log; Date: 09.02.2017 23:48:07; Version: 2.1.4]
[CTDB TOCID: p3cz8JW9EXMkEMUDpYJ7oYBDbkE-] found.
Track | CTDB Status
1 | (828/839) Accurately ripped
2 | (835/839) Accurately ripped
3 | (835/839) Accurately ripped
4 | (835/839) Accurately ripped
5 | (835/839) Accurately ripped
6 | (835/839) Accurately ripped
7 | (834/839) Accurately ripped
8 | (837/839) Accurately ripped
9 | (834/839) Accurately ripped
10 | (834/839) Accurately ripped
11 | (835/839) Accurately ripped
12 | (828/839) Accurately ripped
[AccurateRip ID: 00192cb7-00ecfaba-950d330c] found.
Track [ CRC | V2 ] Status
01 [a7bf28ce|eed6fe4b] (200+200/822) Accurately ripped
02 [937e0975|5eb0151e] (200+200/827) Accurately ripped
03 [a8304806|331e5d96] (200+200/826) Accurately ripped
04 [c10db624|33d5f3cd] (200+200/825) Accurately ripped
05 [2feb2b08|592c52d6] (200+200/827) Accurately ripped
06 [767172e5|0f8bb1e5] (200+200/823) Accurately ripped
07 [a00ac31d|45cb3199] (200+200/818) Accurately ripped
08 [d451f18c|129f9f90] (200+200/824) Accurately ripped
09 [e92a8151|dda76dbe] (200+200/823) Accurately ripped
10 [ab7ca5ea|06025086] (200+200/828) Accurately ripped
11 [2ee48cbb|9017aa2d] (200+200/821) Accurately ripped
12 [38464231|65b0ab76] (200+200/822) Accurately ripped
Offsetted by -756:
01 [aa38945c] (003/822) Accurately ripped
02 [8c8adbdc] (003/827) Accurately ripped
03 [34c450cf] (003/826) Accurately ripped
04 [baf3f6a7] (003/825) Accurately ripped
05 [d97d66d9] (003/827) Accurately ripped
06 [a7674698] (003/823) Accurately ripped
07 [abeefd42] (003/818) Accurately ripped
08 [ed2ea841] (003/824) Accurately ripped
09 [fe4f542e] (003/823) Accurately ripped
10 [b5120f02] (003/828) Accurately ripped
11 [c630d183] (003/821) Accurately ripped
12 [0c2a8321] (003/822) Accurately ripped
Offsetted by -700:
01 [c897d214] (002/822) Accurately ripped
02 [96b8562d] (002/827) Accurately ripped
03 [227ff9df] (002/826) Accurately ripped
04 [ca69c955] (002/825) Accurately ripped
05 [e5506651] (002/827) Accurately ripped
06 [c170f6e2] (002/823) Accurately ripped
07 [c1fb7dd9] (002/818) Accurately ripped
08 [1d322b15] (002/824) Accurately ripped
09 [db861bdc] (002/823) Accurately ripped
10 [04adf8a8] (002/828) Accurately ripped
11 [a28d7b91] (002/821) Accurately ripped
12 [50281463] (002/822) Accurately ripped
Offsetted by -676:
01 [01b3c291] (002/822) Accurately ripped
02 [c7b3bfcd] (002/827) Accurately ripped
03 [3ce952a9] (002/826) Accurately ripped
04 [55d1e724] (002/825) Accurately ripped
05 [ece3dc76] (002/827) Accurately ripped
06 [20cb34e7] (002/823) Accurately ripped
07 [19f637ab] (002/818) Accurately ripped
08 [158d62a6] (002/824) Accurately ripped
09 [56d65467] (002/823) Accurately ripped
10 [c686ef7e] (002/828) Accurately ripped
11 [ba2ee0df] (002/821) Accurately ripped
12 [7fcab5cd] (002/822) Accurately ripped
Offsetted by -664:
01 [33e39d18] (003/822) Accurately ripped
02 [5fdb07f1] (003/827) Accurately ripped
03 [21edf632] (003/826) Accurately ripped
04 [921c7177] (003/825) Accurately ripped
05 [8ec65c8e] (003/827) Accurately ripped
06 [afe103cf] (003/823) Accurately ripped
07 [bea30962] (003/818) Accurately ripped
08 [ad3fb0d6] (003/824) Accurately ripped
09 [2c0cbdde] (003/823) Accurately ripped
10 [9c3c5a99] (003/828) Accurately ripped
11 [9a00514a] (003/821) Accurately ripped
12 [14ee0b06] (003/822) Accurately ripped
Offsetted by -658:
01 [30f911db] (004/822) Accurately ripped
02 [a438e7f3] (004/827) Accurately ripped
03 [46262f14] (004/826) Accurately ripped
04 [7f358d93] (004/825) Accurately ripped
05 [a3be54e1] (004/827) Accurately ripped
06 [15cb8fe5] (004/823) Accurately ripped
07 [2ea594af] (004/818) Accurately ripped
08 [0da762c4] (004/824) Accurately ripped
09 [1b978c52] (004/823) Accurately ripped
10 [030b0afc] (004/828) Accurately ripped
11 [40f51307] (004/821) Accurately ripped
12 [5ed6b6cd] (004/822) Accurately ripped
Offsetted by -646:
01 [0a8b03fb] (037/822) Accurately ripped
02 [172a3246] (039/827) Accurately ripped
03 [8bdcc3a9] (038/826) Accurately ripped
04 [7c777f2c] (036/825) Accurately ripped
05 [0bcf825a] (039/827) Accurately ripped
06 [79fc50d0] (039/823) Accurately ripped
07 [3f88cfed] (037/818) Accurately ripped
08 [72c90a83] (039/824) Accurately ripped
09 [ba28d343] (038/823) Accurately ripped
10 [cb116481] (038/828) Accurately ripped
11 [39a29418] (038/821) Accurately ripped
12 [f25410c4] (038/822) Accurately ripped
Offsetted by -54:
01 [a13d1dac] (002/822) Accurately ripped
02 [2e6ca3a6] (002/827) Accurately ripped
03 [9f6ecef3] (002/826) Accurately ripped
04 [445e8c86] (002/825) Accurately ripped
05 [357acfb3] (002/827) Accurately ripped
06 [587b10f8] (002/823) Accurately ripped
07 [78375beb] (002/818) Accurately ripped
08 [39d13536] (002/824) Accurately ripped
09 [71e7a7c9] (002/823) Accurately ripped
10 [1d25dfdc] (002/828) Accurately ripped
11 [b992f1b9] (002/821) Accurately ripped
12 [a7a6d413] (002/822) Accurately ripped
Offsetted by -12:
01 [3f441bbb] (018/822) Accurately ripped
02 [c297f2d9] (018/827) Accurately ripped
03 [4f880bc6] (018/826) Accurately ripped
04 [b006f226] (018/825) Accurately ripped
05 [44c3b395] (018/827) Accurately ripped
06 [f75db6be] (018/823) Accurately ripped
07 [b0c896c6] (016/818) Accurately ripped
08 [4e144e6b] (017/824) Accurately ripped
09 [f304dcea] (018/823) Accurately ripped
10 [e0a360e8] (018/828) Accurately ripped
11 [54a7d66a] (017/821) Accurately ripped
12 [dd232ce2] (018/822) Accurately ripped
Offsetted by -6:
01 [6671b1d5] (172/822) Accurately ripped
02 [38557b0c] (173/827) Accurately ripped
03 [ff13672b] (171/826) Accurately ripped
04 [911d549d] (172/825) Accurately ripped
05 [8e89b8f6] (172/827) Accurately ripped
06 [fb51510d] (170/823) Accurately ripped
07 [a51a5d1b] (171/818) Accurately ripped
08 [6b0acb81] (170/824) Accurately ripped
09 [5d6b2f7e] (169/823) Accurately ripped
10 [45b4033e] (170/828) Accurately ripped
11 [c0561da6] (170/821) Accurately ripped
12 [09fab612] (170/822) Accurately ripped
Offsetted by 6:
01 [e0da9912] (006/822) Accurately ripped
02 [b23cbdf3] (007/827) Accurately ripped
03 [e227bdce] (007/826) Accurately ripped
04 [b4be60c6] (007/825) Accurately ripped
05 [ce10c8d9] (007/827) Accurately ripped
06 [08e754b6] (007/823) Accurately ripped
07 [38720924] (007/818) Accurately ripped
08 [51cba687] (007/824) Accurately ripped
09 [3060cdfc] (007/823) Accurately ripped
10 [11c248c5] (008/828) Accurately ripped
11 [4fabd5de] (008/821) Accurately ripped
12 [6809d0d6] (008/822) Accurately ripped
Offsetted by -787:
01 [7ba0634a] (000/822) No match (V2 was not tested)
02 [054a9b45] (002/827) Accurately ripped
03 [a8c11b88] (002/826) Accurately ripped
04 [be14da25] (002/825) Accurately ripped
05 [9860a286] (002/827) Accurately ripped
06 [2cf6c17b] (002/823) Accurately ripped
07 [a91e80d3] (002/818) Accurately ripped
08 [c1dc7df0] (002/824) Accurately ripped
09 [f7244a3a] (002/823) Accurately ripped
10 [55a12959] (002/828) Accurately ripped
11 [b4a93206] (002/821) Accurately ripped
12 [b15a40dc] (002/822) Accurately ripped
Offsetted by -688:
01 [ac8f4276] (000/822) No match (V2 was not tested)
02 [9b3c0644] (000/827) No match (V2 was not tested)
03 [ed77b0f1] (000/826) No match (V2 was not tested)
04 [3128c812] (000/825) No match (V2 was not tested)
05 [18cef72f] (000/827) No match (V2 was not tested)
06 [74c555c4] (000/823) No match (V2 was not tested)
07 [81ef2a0d] (000/818) No match (V2 was not tested)
08 [1521e1df] (000/824) No match (V2 was not tested)
09 [92ea2d0f] (000/823) No match (V2 was not tested)
10 [e784779f] (000/828) No match (V2 was not tested)
11 [7bec31f4] (000/821) No match (V2 was not tested)
12 [e8c463d0] (000/822) No match (V2 was not tested)
Offsetted by -132:
01 [17988a62] (000/822) No match (V2 was not tested)
02 [18824810] (000/827) No match (V2 was not tested)
03 [1f551400] (000/826) No match (V2 was not tested)
04 [11f200af] (000/825) No match (V2 was not tested)
05 [a980e373] (000/827) No match (V2 was not tested)
06 [986463c6] (000/823) No match (V2 was not tested)
07 [220b1538] (000/818) No match (V2 was not tested)
08 [ae1d54c0] (000/824) No match (V2 was not tested)
09 [b971c287] (000/823) No match (V2 was not tested)
10 [1bb766e9] (000/828) No match (V2 was not tested)
11 [1b8c3a68] (000/821) No match (V2 was not tested)
12 [e9998800] (000/822) No match (V2 was not tested)
Offsetted by -120:
01 [11aea329] (000/822) No match (V2 was not tested)
02 [08667f00] (000/827) No match (V2 was not tested)
03 [b030d872] (000/826) No match (V2 was not tested)
04 [75f8d38a] (000/825) No match (V2 was not tested)
05 [386cbd09] (000/827) No match (V2 was not tested)
06 [31da2d28] (000/823) No match (V2 was not tested)
07 [e34f2426] (000/818) No match (V2 was not tested)
08 [6b7f52c1] (000/824) No match (V2 was not tested)
09 [19d65654] (000/823) No match (V2 was not tested)
10 [e5aabdf9] (000/828) No match (V2 was not tested)
11 [c914df6b] (000/821) No match (V2 was not tested)
12 [5a6a5d91] (000/822) No match (V2 was not tested)
Offsetted by -66:
01 [b73e8145] (000/822) No match (V2 was not tested)
02 [dcc8ad3e] (000/827) No match (V2 was not tested)
03 [0e3f201b] (000/826) No match (V2 was not tested)
04 [01b256c4] (000/825) No match (V2 was not tested)
05 [d4f35faf] (000/827) No match (V2 was not tested)
06 [0b059f60] (000/823) No match (V2 was not tested)
07 [add8a732] (000/818) No match (V2 was not tested)
08 [8a75452a] (000/824) No match (V2 was not tested)
09 [a7bc74ab] (000/823) No match (V2 was not tested)
10 [54c892a0] (000/828) No match (V2 was not tested)
11 [2a77595b] (000/821) No match (V2 was not tested)
12 [4699ff81] (000/822) No match (V2 was not tested)
Offsetted by -42:
01 [cee301e4] (000/822) No match (V2 was not tested)
02 [0d6f2567] (000/827) No match (V2 was not tested)
03 [159a3169] (000/826) No match (V2 was not tested)
04 [0b6a9e60] (000/825) No match (V2 was not tested)
05 [72d0ef2d] (000/827) No match (V2 was not tested)
06 [dc436395] (000/823) No match (V2 was not tested)
07 [bf7f2ff6] (000/818) No match (V2 was not tested)
08 [b49548ce] (000/824) No match (V2 was not tested)
09 [b61dde79] (000/823) No match (V2 was not tested)
10 [e8822e2d] (000/828) No match (V2 was not tested)
11 [b994e2a6] (000/821) No match (V2 was not tested)
12 [0374b572] (000/822) No match (V2 was not tested)
Offsetted by -30:
01 [5bf76406] (002/822) Accurately ripped
02 [715541d2] (002/827) Accurately ripped
03 [0dffd938] (002/826) Accurately ripped
04 [91e09877] (002/825) Accurately ripped
05 [99d5ef3e] (002/827) Accurately ripped
06 [136266d2] (002/823) Accurately ripped
07 [91d32216] (000/818) No match (V2 was not tested)
08 [a5eca954] (000/824) No match (V2 was not tested)
09 [e327d879] (000/823) No match (V2 was not tested)
10 [b34e78fe] (002/828) Accurately ripped
11 [90fe83dc] (000/821) No match (V2 was not tested)
12 [5b24a65c] (002/822) Accurately ripped
Offsetted by -18:
01 [3393d5a3] (000/822) No match (V2 was not tested)
02 [a36fe0b9] (002/827) Accurately ripped
03 [7d6692c5] (002/826) Accurately ripped
04 [07cbd044] (002/825) Accurately ripped
05 [613fc715] (002/827) Accurately ripped
06 [1f480beb] (002/823) Accurately ripped
07 [54e2d080] (002/818) Accurately ripped
08 [52d9a5de] (002/824) Accurately ripped
09 [f20ff54c] (002/823) Accurately ripped
10 [7c26bec5] (002/828) Accurately ripped
11 [ff2f04d7] (002/821) Accurately ripped
12 [b155a705] (002/822) Accurately ripped

Track Peak [ CRC32 ] [W/O NULL] [ LOG ]
– 99,9 [143BA998] [FFDBAB61] CRC32
01 99,9 [4156E959] [EBD552F2]
02 99,9 [286D3913] [C76D3A65]
03 99,9 [82B5B338] [BB5944FB]
04 99,9 [7AC9349D] [404623DE]
05 99,9 [8F3D054D] [275B73F3]
06 99,9 [444CB27D] [05FCD34F]
07 99,9 [4315F32F] [F736C40B]
08 99,9 [8A2845C2] [6DF757B3]
09 99,9 [7241E258] [DA3C5929]
10 99,9 [397E293D] [14538C0B]
11 99,9 [A088080E] [0663D284]
12 90,9 [F6973E08] [E89A8E73]

Madonna - Hard Candy (2008)

All thanks go to bvstudio

Madonna in my Blog

Download Madonna – Hard Candy (2008):

Madonna – Hard Candy (2008) Download, Warez, DDL, Free, Full Album, Torrent, Legal.

Download