Madelon Michel, Fania Chapiro – Belle van Zuylen And Contemporaries (1995)

Download
Madelon Michel, Fania Chapiro - Belle van Zuylen And Contemporaries (1995)

Madelon Michel, Fania Chapiro – Belle van Zuylen And Contemporaries (1995)
EAC | FLAC (tracks+.cue, log) | Covers Included | 58:05 | 261 MB
Genre: Classical, Vocal | Label: Erasmus Muziekproducties | Catalog: WVH127

This CD is musical excellence captured for posterity! Fania Chapiro has nimble and musical phrasing of exquisitely difficult works. These are from the height of the Baroque era, pieces full to the brim with trills and mordants. The voice of Maelon Michel is so light and clear and bell-like, it is a joyous thing. I can’t even be jealous of a voice this perfect, just delight in hearing it. The quality of her voice is also perfectly suited to this material. These pieces were written for earlier instruments, but played on an early pianoforte, but you won’t miss it. The sound of this instrument is close enough to the original (and certainly these works were being played on these instruments as they replaced other keyboard instruments). The result is a sound that is satisfying to those who like historical purity, and to imagine that one has stepped back in time into the salon to hear these pieces. I purchased this CD to familiarize myself with the works of Isabelle Charriere/Belle Van Zuylen, as she is a bit of a rarity, but have found one of my favorite CDs. Included are other musical rarities, like the works of Rousseau (another writer who also composed). If you like Baroque music you can not top this! Composing was a side line for Belle, because of that – and her being a woman – she did not achieve the highest levels. How delightful it is then, to have these two world class talents, accomplished women artists, giving Belle’s work it’s overdue day in the sun!

discogs

Madelon Michel, Fania Chapiro - Belle van Zuylen And Contemporaries (1995)

Track List:

Jean-Philippe Rameau
1 Les Cyclopes
2 Le Rappel Des Oiseaux
3 Les Tourbilons

Belle van Zuylen* Airs Et Romances
4 – No.1: L’an Passe
5 – No.2: De la Ville Et Des Champs
6 – No.3: Pauvre Agneau
7 – No.4: L’amour Est Un Enfant Trompeur
8 – No.5: Timarette S’en Est Allee

Belle van Zuylen*
9 Sonata In C Major Op. 2 No. 2

Belle van Zuylen* Airs Et Romances
10 – No.6: Lise Amoit
11 – No.7: Autre Air Pour "Lise Aimoit"
12 – No.8: Arbre Charmant
13 – No.9: Douce Retraite
14 – No.10: Tout Cede A la Beauté D’Elise

Guiseppe Sarti
15 – Sonata I In G Major: Preludio – Allegro

Jean-Jacques Rousseau
16 Que Le Jour Me Dure
17 Le Rosier

Domenico Cimarosa
18 Sonata In G Major
19 Sonata In A Minor
20 Sonata In E Flat Major
21 Sonata In C Minor
22 Sonata In A Major
23 Sonata In D Minor
24 Sonata In C Minor

Jean-Philippe Rameau – Hippolyte Et Aricie
25 – Chantons Sur la Musette (Air Et Choeur)

Performers:
Madelon Michel – soprano
Fania Chapiro – pianoforte

EAC Log
Exact Audio Copy V1.0 beta 3 from 29. August 2011

EAC extraction logfile from 28. November 2014, 21:27

Madelon Michel, Fania Chapiro / Belle van Zuylen and contemporaries

Used drive : hp CDDVDW TS-L633N Adapter: 1 ID: 0

Read mode : Secure
Utilize accurate stream : Yes
Defeat audio cache : Yes
Make use of C2 pointers : No

Read offset correction : 6
Overread into Lead-In and Lead-Out : No
Fill up missing offset samples with silence : Yes
Delete leading and trailing silent blocks : No
Null samples used in CRC calculations : Yes
Used interface : Native Win32 interface for Win NT & 2000
Gap handling : Appended to previous track

Used output format : User Defined Encoder
Selected bitrate : 1024 kBit/s
Quality : High
Add ID3 tag : No
Command line compressor : C:Program Files (x86)Exact Audio CopyFlacflac.exe
Additional command line options : -8 -V -T "ARTIST=%artist%" -T "TITLE=%title%" -T "ALBUM=%albumtitle%" -T "DATE=%year%" -T "TRACKNUMBER=%tracknr%" -T "GENRE=%genre%" -T "PERFORMER=%albuminterpret%" -T "COMPOSER=%composer%" %haslyrics%–tag-from-file=LYRICS="%lyricsfile%"%haslyrics% -T "ALBUMARTIST=%albumartist%" -T "DISCNUMBER=%cdnumber%" -T "TOTALDISCS=%totalcds%" -T "TOTALTRACKS=%numtracks%" -T "COMMENT=%comment%" %source% -o %dest%

TOC of the extracted CD

Track | Start | Length | Start sector | End sector
––––––––––––––––––––––––––––-
1 | 0:00.00 | 3:26.37 | 0 | 15486
2 | 3:26.37 | 3:20.05 | 15487 | 30491
3 | 6:46.42 | 2:25.38 | 30492 | 41404
4 | 9:12.05 | 1:46.30 | 41405 | 49384
5 | 10:58.35 | 1:05.10 | 49385 | 54269
6 | 12:03.45 | 1:31.57 | 54270 | 61151
7 | 13:35.27 | 0:44.05 | 61152 | 64456
8 | 14:19.32 | 1:39.55 | 64457 | 71936
9 | 15:59.12 | 5:13.33 | 71937 | 95444
10 | 21:12.45 | 0:42.62 | 95445 | 98656
11 | 21:55.32 | 0:46.05 | 98657 | 102111
12 | 22:41.37 | 2:32.08 | 102112 | 113519
13 | 25:13.45 | 2:24.72 | 113520 | 124391
14 | 27:38.42 | 1:55.40 | 124392 | 133056
15 | 29:34.07 | 4:32.20 | 133057 | 153476
16 | 34:06.27 | 1:53.65 | 153477 | 162016
17 | 36:00.17 | 2:29.05 | 162017 | 173196
18 | 38:29.22 | 1:55.45 | 173197 | 181866
19 | 40:24.67 | 1:36.35 | 181867 | 189101
20 | 42:01.27 | 1:53.53 | 189102 | 197629
21 | 43:55.05 | 1:52.40 | 197630 | 206069
22 | 45:47.45 | 1:41.40 | 206070 | 213684
23 | 47:29.10 | 2:13.12 | 213685 | 223671
24 | 49:42.22 | 2:31.20 | 223672 | 235016
25 | 52:13.42 | 5:49.08 | 235017 | 261199

Track 1

Filename F:ripsMichel (Madelon), Fania Chapiro – ‘Belle van Zuylen and contemporaries’1 Rameau – Les Cyclopes.wav

Pre-gap length 0:00:02.00

Peak level 36.7 %
Extraction speed 1.7 X
Track quality 99.9 %
Test CRC 54CCD2B5
Copy CRC 54CCD2B5
Track not present in AccurateRip database
Copy OK

Track 2

Filename F:ripsMichel (Madelon), Fania Chapiro – ‘Belle van Zuylen and contemporaries’2 Rameau – Le Rappel des oiseaux.wav

Peak level 28.3 %
Extraction speed 2.3 X
Track quality 100.0 %
Test CRC 26933D39
Copy CRC 26933D39
Track not present in AccurateRip database
Copy OK

Track 3

Filename F:ripsMichel (Madelon), Fania Chapiro – ‘Belle van Zuylen and contemporaries’3 Rameau – Les Tourbillons.wav

Peak level 26.5 %
Extraction speed 2.3 X
Track quality 100.0 %
Test CRC 29C4F976
Copy CRC 29C4F976
Track not present in AccurateRip database
Copy OK

Track 4

Filename F:ripsMichel (Madelon), Fania Chapiro – ‘Belle van Zuylen and contemporaries’4 Belle van Zuylen – L’an passé.wav

Peak level 57.9 %
Extraction speed 2.2 X
Track quality 100.0 %
Test CRC 9E4EE4EE
Copy CRC 9E4EE4EE
Track not present in AccurateRip database
Copy OK

Track 5

Filename F:ripsMichel (Madelon), Fania Chapiro – ‘Belle van Zuylen and contemporaries’5 Belle van Zuylen – De la ville et des champs.wav

Peak level 85.8 %
Extraction speed 1.9 X
Track quality 100.0 %
Test CRC F27DFEE9
Copy CRC F27DFEE9
Track not present in AccurateRip database
Copy OK

Track 6

Filename F:ripsMichel (Madelon), Fania Chapiro – ‘Belle van Zuylen and contemporaries’6 Belle van Zuylen – Pauvre Agneau.wav

Peak level 32.9 %
Extraction speed 2.3 X
Track quality 100.0 %
Test CRC EB2218FC
Copy CRC EB2218FC
Track not present in AccurateRip database
Copy OK

Track 7

Filename F:ripsMichel (Madelon), Fania Chapiro – ‘Belle van Zuylen and contemporaries’7 Belle van Zuylen – L’amour est un enfant trompeur.wav

Peak level 63.7 %
Extraction speed 1.7 X
Track quality 100.0 %
Test CRC C2AFCC50
Copy CRC C2AFCC50
Track not present in AccurateRip database
Copy OK

Track 8

Filename F:ripsMichel (Madelon), Fania Chapiro – ‘Belle van Zuylen and contemporaries’8 Belle van Zuylen – Timarette s’en est allée.wav

Peak level 69.6 %
Extraction speed 2.4 X
Track quality 100.0 %
Test CRC 64624943
Copy CRC 64624943
Track not present in AccurateRip database
Copy OK

Track 9

Filename F:ripsMichel (Madelon), Fania Chapiro – ‘Belle van Zuylen and contemporaries’9 Belle van Zuylen – Sonata in C, op. 2,2.wav

Peak level 28.5 %
Extraction speed 3.1 X
Track quality 100.0 %
Test CRC 8A583D5C
Copy CRC 8A583D5C
Track not present in AccurateRip database
Copy OK

Track 10

Filename F:ripsMichel (Madelon), Fania Chapiro – ‘Belle van Zuylen and contemporaries’10 Belle van Zuylen – Lise aimoit.wav

Peak level 28.0 %
Extraction speed 1.0 X
Track quality 99.7 %
Test CRC 85507B60
Copy CRC 85507B60
Track not present in AccurateRip database
Copy OK

Track 11

Filename F:ripsMichel (Madelon), Fania Chapiro – ‘Belle van Zuylen and contemporaries’11 Belle van Zuylen – Autre air pour ‘Lise aimoit’.wav

Peak level 47.3 %
Extraction speed 2.0 X
Track quality 100.0 %
Test CRC 4C7AEEA9
Copy CRC 4C7AEEA9
Track not present in AccurateRip database
Copy OK

Track 12

Filename F:ripsMichel (Madelon), Fania Chapiro – ‘Belle van Zuylen and contemporaries’12 Belle van Zuylen – Arbre charmant.wav

Peak level 69.4 %
Extraction speed 3.0 X
Track quality 100.0 %
Test CRC 6E54AA16
Copy CRC 6E54AA16
Track not present in AccurateRip database
Copy OK

Track 13

Filename F:ripsMichel (Madelon), Fania Chapiro – ‘Belle van Zuylen and contemporaries’13 Belle van Zuylen – Douce retraite.wav

Peak level 49.4 %
Extraction speed 3.1 X
Track quality 100.0 %
Test CRC EEBC66D8
Copy CRC EEBC66D8
Track not present in AccurateRip database
Copy OK

Track 14

Filename F:ripsMichel (Madelon), Fania Chapiro – ‘Belle van Zuylen and contemporaries’14 Belle van Zuylen – Tout cède à la beauté.wav

Peak level 41.9 %
Extraction speed 2.0 X
Track quality 99.9 %
Test CRC 28D6DA3C
Copy CRC 28D6DA3C
Track not present in AccurateRip database
Copy OK

Track 15

Filename F:ripsMichel (Madelon), Fania Chapiro – ‘Belle van Zuylen and contemporaries’15 Sarti – Sonata I in G.wav

Peak level 29.6 %
Extraction speed 3.6 X
Track quality 100.0 %
Test CRC 6704EE19
Copy CRC 6704EE19
Track not present in AccurateRip database
Copy OK

Track 16

Filename F:ripsMichel (Madelon), Fania Chapiro – ‘Belle van Zuylen and contemporaries’16 Rousseau – Que le jour me dure.wav

Peak level 52.0 %
Extraction speed 2.1 X
Track quality 99.9 %
Test CRC 4EB885E0
Copy CRC 4EB885E0
Track not present in AccurateRip database
Copy OK

Track 17

Filename F:ripsMichel (Madelon), Fania Chapiro – ‘Belle van Zuylen and contemporaries’17 Rousseau – La rosier.wav

Peak level 58.1 %
Extraction speed 2.5 X
Track quality 99.9 %
Test CRC BF2057F8
Copy CRC BF2057F8
Track not present in AccurateRip database
Copy OK

Track 18

Filename F:ripsMichel (Madelon), Fania Chapiro – ‘Belle van Zuylen and contemporaries’18 Cimarosa – Sonata in G.wav

Peak level 31.5 %
Extraction speed 3.3 X
Track quality 100.0 %
Test CRC 33523108
Copy CRC 33523108
Track not present in AccurateRip database
Copy OK

Track 19

Filename F:ripsMichel (Madelon), Fania Chapiro – ‘Belle van Zuylen and contemporaries’19 Cimarosa – Sonata in a minor.wav

Peak level 34.2 %
Extraction speed 3.2 X
Track quality 100.0 %
Test CRC 4F1E729F
Copy CRC 4F1E729F
Track not present in AccurateRip database
Copy OK

Track 20

Filename F:ripsMichel (Madelon), Fania Chapiro – ‘Belle van Zuylen and contemporaries’20 Cimarosa – Sonata in E flat.wav

Peak level 30.8 %
Extraction speed 3.3 X
Track quality 100.0 %
Test CRC 837CAEE0
Copy CRC 837CAEE0
Track not present in AccurateRip database
Copy OK

Track 21

Filename F:ripsMichel (Madelon), Fania Chapiro – ‘Belle van Zuylen and contemporaries’21 Cimarosa – Sonata in c minor.wav

Peak level 28.8 %
Extraction speed 2.3 X
Track quality 99.9 %
Test CRC 853A4992
Copy CRC 853A4992
Track not present in AccurateRip database
Copy OK

Track 22

Filename F:ripsMichel (Madelon), Fania Chapiro – ‘Belle van Zuylen and contemporaries’22 Cimarosa – Sonata in A.wav

Peak level 41.1 %
Extraction speed 3.3 X
Track quality 100.0 %
Test CRC 67172961
Copy CRC 67172961
Track not present in AccurateRip database
Copy OK

Track 23

Filename F:ripsMichel (Madelon), Fania Chapiro – ‘Belle van Zuylen and contemporaries’23 Cimarosa – Sonata in d minor.wav

Peak level 28.8 %
Extraction speed 2.5 X
Track quality 99.9 %
Test CRC A316A087
Copy CRC A316A087
Track not present in AccurateRip database
Copy OK

Track 24

Filename F:ripsMichel (Madelon), Fania Chapiro – ‘Belle van Zuylen and contemporaries’24 Cimarosa – Sonata in c minor.wav

Peak level 35.9 %
Extraction speed 3.8 X
Track quality 100.0 %
Test CRC 95D5B0E1
Copy CRC 95D5B0E1
Track not present in AccurateRip database
Copy OK

Track 25

Filename F:ripsMichel (Madelon), Fania Chapiro – ‘Belle van Zuylen and contemporaries’25 Rameau – Hippolyte et Aricie (Chantons sur la musette [air et choeur]).wav

Peak level 93.8 %
Extraction speed 4.5 X
Track quality 100.0 %
Test CRC 597A4E93
Copy CRC 597A4E93
Track not present in AccurateRip database
Copy OK

None of the tracks are present in the AccurateRip database

No errors occurred

End of status report

==== Log checksum 4AE138BC44B3A8E90518DBBEDA88CF83D644F2308EBAE8A1FCBC7370A3012EE7 ====

Thanks to the Original ripper (unknown)!

Download:

Madelon Michel, Fania Chapiro – Belle van Zuylen And Contemporaries (1995) Download, Warez, DDL, Free, Full Album, Torrent, Legal.

Download