Maceo Parker – Us (1974) [2003 Japan]

Download
Maceo Parker - Us (1974) [2003 Japan]

Maceo Parker – Us (1974) [2003 Japan]
EAC Rip | FLAC (Tracks) +CUE, LOG | 266 MB | Covers Included
Genre: Jazz, Soul, Jazz Funk | Label: Universal Music [Japan] | Catalog Number: UICY-9315

“Maceo! Blow your horn!” That’s how James Brown would dynamically signal his favorite horn player to take another stinging sax solo — and Maceo Parker never once let his boss down. Parker’s jabbing workouts in the midst of “Papa’s Got a Brand New Bag” and “Cold Sweat” made him a household name among ’60s funk fans — not bad for a kid fresh out of college who got the gig primarily because Brown coveted his brother Melvin’s drumming chops.
Now Parker is a star in his own right. His Verve albums Roots Revisited and Mo’ Roots impeccably spotlight his soul-drenched alto sax on a sizzling hybrid of funk, R&B, and jazz. And he’s brought along his ex-section mates from Brown’s band trombonist Fred Wesley and saxist Pee Wee Ellis to stoke the almighty groove. The North Carolina product quit Brown several times. Along with his bandmates, Parker mutinied in 1970 to form Maceo & All the King’s Men, only to return to the fold three years later; later in the decade, he worked with Parliament/Funkadelic and Bootsy’s Rubber Band. But when Brown was incarcerated, Parker was there for him, releasing a rap song that urged the Godfather of Soul’s immediate freedom. With his newfound solo fame, however, it’s doubtful that you’ll see Parker back in Brown’s horn section anytime soon. Parker’s solo albums include Us People (1974), Funky Music Machine (1975), For All the King’s Men (1989), Roots Revisited (1990), Mo’ Roots (1991), the seminal Life on Planet Groove (1992), Southern Exposure (1993), FunkOverlord War (1998), MACEO (2000), Made by Maceo (2003), and Schools In! (2005).- All Music Guide.

EAC Log
Exact Audio Copy V0.99 prebeta 4 from 23. January 2008

EAC extraction logfile from 12. October 2010, 19:10

Maceo Parker / Us

Used drive : HL-DT-STDVD-RAM GSA-H55N Adapter: 0 ID: 0

Read mode : Secure
Utilize accurate stream : Yes
Defeat audio cache : Yes
Make use of C2 pointers : No

Read offset correction : 102
Overread into Lead-In and Lead-Out : Yes
Fill up missing offset samples with silence : Yes
Delete leading and trailing silent blocks : No
Null samples used in CRC calculations : Yes
Used interface : Installed external ASPI interface
Gap handling : Appended to previous track

Used output format : User Defined Encoder
Selected bitrate : 768 kBit/s
Quality : High
Add ID3 tag : No
Command line compressor : C:Program FilesExact Audio CopyFlacflac.exe
Additional command line options : -8 -V -T "ARTIST=%a" -T "TITLE=%t" -T "ALBUM=%g" -T "DATE=%y" -T "TRACKNUMBER=%n" -T "GENRE=%m" -T "COMMENT=EAC FLAC -8" %s

TOC of the extracted CD

Track | Start | Length | Start sector | End sector
––––––––––––––––––––––––––––-
1 | 0:00.00 | 4:08.17 | 0 | 18616
2 | 4:08.17 | 5:49.15 | 18617 | 44806
3 | 9:57.32 | 3:29.73 | 44807 | 60554
4 | 13:27.30 | 3:58.07 | 60555 | 78411
5 | 17:25.37 | 3:57.28 | 78412 | 96214
6 | 21:22.65 | 4:09.52 | 96215 | 114941
7 | 25:32.42 | 10:38.60 | 114942 | 162851

Track 1

Filename H:Rips1 – Soul Power 74 (J.Brown).wav

Pre-gap length 0:00:02.00

Peak level 97.7 %
Track quality 100.0 %
Test CRC C355B7C4
Copy CRC C355B7C4
Accurately ripped (confidence 1) [DA166413]
Copy OK

Track 2

Filename H:Rips2 – Parrty (J.Brown).wav

Peak level 97.7 %
Track quality 100.0 %
Test CRC 579205C5
Copy CRC 579205C5
Accurately ripped (confidence 1) [896E8A68]
Copy OK

Track 3

Filename H:Rips3 – Show And Tell (J.Fuller).wav

Peak level 97.7 %
Track quality 100.0 %
Test CRC 73A07A79
Copy CRC 73A07A79
Accurately ripped (confidence 1) [4FC8E51C]
Copy OK

Track 4

Filename H:Rips4 – Drowning In The Sea Of Love (Gamble-Huff).wav

Peak level 97.7 %
Track quality 99.9 %
Test CRC 43D8F921
Copy CRC 43D8F921
Accurately ripped (confidence 1) [6E2A625E]
Copy OK

Track 5

Filename H:Rips5 – I Can Play For (Just You And Me) (Pankow).wav

Peak level 97.7 %
Track quality 100.0 %
Test CRC C2944F47
Copy CRC C2944F47
Accurately ripped (confidence 1) [06106992]
Copy OK

Track 6

Filename H:Rips6 – Doing It To Death (J.Brown).wav

Peak level 97.7 %
Track quality 99.9 %
Test CRC 9A7F2931
Copy CRC 9A7F2931
Accurately ripped (confidence 1) [61D3C0FE]
Copy OK

Track 7

Filename H:Rips7 – The Soul Of the Black Man.wav

Peak level 97.7 %
Track quality 100.0 %
Test CRC 3D602457
Copy CRC 3D602457
Accurately ripped (confidence 1) [612070A3]
Copy OK

All tracks accurately ripped

No errors occurred

End of status report

Tracklist:
1. Soul Power (James Brown) – 4:09
2. Parrty (James Brown) – 5:50
3. Show and Tell (Jerry Fuller) – 3:31
4. Drowning in the Sea of Love (K. Gamble – L. Huff) – 3:59
5. I Can Play For (Just You & Me) (J. Pankow) – 3:58
6. Doing It to Death (James Brown) – 4:10
7. The Soul of a Black Man (James Brown) – 10:43

Players:
Maceo Parker- sax
James Brown – production, vocals on #6 & 7
arranged by Fred Wesley & James Brown
The all king’s men:’Sweet’ Charles Sherrell, Alfonzo Kellum, Bernard Odum, Eldee Williams, Garrett Tilford, Jimmy Nolen, Joseph Davis (2), Maceo Parker, Melvin Parker, Richard Griffith, Robert Griffith

Thanks to the original ripper

Maceo Parker – Us (1974) [2003 Japan] Download, Warez, DDL, Free, Full Album, Torrent, Legal.

Download