M. Ward – Transfiguration Of Vincent (2003) {Matador Records OLE 5782}

Download
M. Ward - Transfiguration Of Vincent (2003) {Matador Records OLE 5782}

M. Ward – Transfiguration Of Vincent (2003) {Matador Records OLE 5782}
EAC rip (secure mode) | FLAC (tracks)+CUE+LOG -> 254 Mb | MP3 @320 -> 103 Mb
Full Artwork @ 600 dpi (jpg) -> 22 Mb | 5% repair rar
© 2003 Matador Records | OLE 5782
Indie Rock / Rock / Alternative Singer-Songwriter / Adult Alternative Pop

M. Ward’s Transfiguration of Vincent is nothing less than spectacular. From the buoyant, late-Beatlesque "Vincent O’Brien" to the dank, shuffling, south of the border groove on "Sad, Sad Song," the troubadour manages to capture a timeless folkiness and match it with a surreal and sparkling sense of nostalgia that clearly echoes Tom Waits. Recorded with the Old Joe Clarks as the backup band, Transfiguration is rooted firmly in old-time Americana, yet M. Ward’s take on country and particularly his vocals somehow fit perfectly with Giant Sand, Sparklehorse, and California’s surreal, pastoral psych-pop outfit Grandaddy (whose Jason Lytle contributed some field recordings).

Just check M. Ward’s stunning transformation of Bowie’s "Let’s Dance," which proves there’s some deeply buried pop beneath these honest folk tunes. Transfiguration is a quiet record and might lose some listeners in it’s sleepy summer melancholy, but M. Ward is the real deal – and he’s surely worthy of heaps of attention and acclaim.

M. Ward - Transfiguration Of Vincent (2003) {Matador Records OLE 5782}

Transfiguration of Vincent placed on Slant Magazine’s list of best albums of the 2000s at number 88.

pitchfork.com review

tracklist:
01 – Transfiguration 1
02 – Sad, Sad Song
03 – Vincent O’Brien
04 – A Voice at the End of the Line
05 – Duet for Guitars 3
06 – Outta My Head
07 – Involuntary
08 – Helicopter
09 – Poor Boy, Minor Key
10 – Fool Says
11 – Get to the Table on Time
12 – Undertaker
13 – Dead Man
14 – Let’s Dance
15 – Transfiguration 2

EAC log
EAC extraction logfile from 4. December 2006, 2:46 for CD
M. Ward / Transfiguration Of Vincent

Used drive : PLEXTOR DVDR PX-755A Adapter: 3 ID: 0
Read mode : Secure with NO C2, accurate stream, disable cache
Read offset correction : 30
Overread into Lead-In and Lead-Out : Yes

Used output format : Internal WAV Routines
44.100 Hz; 16 Bit; Stereo

Other options :
Fill up missing offset samples with silence : Yes
Delete leading and trailing silent blocks : No
Installed external ASPI interface

Track 1
Filename C:M. Ward – Transfiguration Of Vincent (2003) [FLAC]1 – Transfiguration 1.wav

Pre-gap length 0:00:02.00

Peak level 97.7 %
Track quality 100.0 %
Test CRC 7C95B400
Copy CRC 7C95B400
Copy OK

Track 2
Filename C:M. Ward – Transfiguration Of Vincent (2003) [FLAC]2 – Sad, Sad Song.wav

Pre-gap length 0:00:03.30

Peak level 96.8 %
Track quality 100.0 %
Test CRC CD5DA1C4
Copy CRC CD5DA1C4
Copy OK

Track 3
Filename C:M. Ward – Transfiguration Of Vincent (2003) [FLAC]3 – Vincent O’Brien.wav

Pre-gap length 0:00:00.77

Peak level 96.6 %
Track quality 100.0 %
Test CRC 15B9DA08
Copy CRC 15B9DA08
Copy OK

Track 4
Filename C:M. Ward – Transfiguration Of Vincent (2003) [FLAC]4 – A Voice at the End of the Line.wav

Pre-gap length 0:00:00.34

Peak level 96.6 %
Track quality 100.0 %
Test CRC 6AAEAFF3
Copy CRC 6AAEAFF3
Copy OK

Track 5
Filename C:M. Ward – Transfiguration Of Vincent (2003) [FLAC]5 – Duet for Guitars 3.wav

Pre-gap length 0:00:00.14

Peak level 97.4 %
Track quality 100.0 %
Test CRC FCB633FF
Copy CRC FCB633FF
Copy OK

Track 6
Filename C:M. Ward – Transfiguration Of Vincent (2003) [FLAC]6 – Outta My Head.wav

Pre-gap length 0:00:00.09

Peak level 96.6 %
Track quality 99.9 %
Test CRC 6FB1D8FD
Copy CRC 6FB1D8FD
Copy OK

Track 7
Filename C:M. Ward – Transfiguration Of Vincent (2003) [FLAC]7 – Involuntary.wav

Pre-gap length 0:00:02.05

Peak level 96.6 %
Track quality 100.0 %
Test CRC 76E23E80
Copy CRC 76E23E80
Copy OK

Track 8
Filename C:M. Ward – Transfiguration Of Vincent (2003) [FLAC]8 – Helicopter.wav

Pre-gap length 0:00:02.49

Peak level 96.6 %
Track quality 100.0 %
Test CRC 8BCA3312
Copy CRC 8BCA3312
Copy OK

Track 9
Filename C:M. Ward – Transfiguration Of Vincent (2003) [FLAC]9 – Poor Boy, Minor Key.wav

Pre-gap length 0:00:00.12

Peak level 96.6 %
Track quality 100.0 %
Test CRC 10CB1B66
Copy CRC 10CB1B66
Copy OK

Track 10
Filename C:M. Ward – Transfiguration Of Vincent (2003) [FLAC]10 – Fool Says.wav

Pre-gap length 0:00:02.14

Peak level 96.6 %
Track quality 100.0 %
Test CRC B512E86D
Copy CRC B512E86D
Copy OK

Track 11
Filename C:M. Ward – Transfiguration Of Vincent (2003) [FLAC]11 – Get to the Table on Time.wav

Pre-gap length 0:00:00.14

Peak level 96.6 %
Track quality 100.0 %
Test CRC A2186BD5
Copy CRC A2186BD5
Copy OK

Track 12
Filename C:M. Ward – Transfiguration Of Vincent (2003) [FLAC]12 – Undertaker.wav

Pre-gap length 0:00:02.13

Peak level 96.6 %
Track quality 100.0 %
Test CRC CC3D1FF9
Copy CRC CC3D1FF9
Copy OK

Track 13
Filename C:M. Ward – Transfiguration Of Vincent (2003) [FLAC]13 – Dead Man.wav

Pre-gap length 0:00:00.14

Peak level 96.6 %
Track quality 100.0 %
Test CRC 6701B44A
Copy CRC 6701B44A
Copy OK

Track 14
Filename C:M. Ward – Transfiguration Of Vincent (2003) [FLAC]14 – Let’s Dance.wav

Pre-gap length 0:00:03.10

Peak level 96.6 %
Track quality 99.9 %
Test CRC D48F0341
Copy CRC D48F0341
Copy OK

Track 15
Filename C:M. Ward – Transfiguration Of Vincent (2003) [FLAC]15 – Transfiguration 2.wav

Pre-gap length 0:00:00.08

Peak level 96.6 %
Track quality 100.0 %
Test CRC 48A35F0C
Copy CRC 48A35F0C
Copy OK

No errors occured

End of status report

M. Ward - Transfiguration Of Vincent (2003) {Matador Records OLE 5782}

M. Ward - Transfiguration Of Vincent (2003) {Matador Records OLE 5782}

see more M. Ward…

All thanks goes to the original releaser!

===

M. Ward – Transfiguration Of Vincent (2003) {Matador Records OLE 5782} Download, Warez, DDL, Free, Full Album, Torrent, Legal.

Download