Luther Vandross – Your Secret Love (1996)

Download
Luther Vandross - Your Secret Love (1996)

Luther Vandross – Your Secret Love (1996)
EAC Rip | FLAC (Tracks) +CUE, LOG | 386 MB | Covers Included
Genre: Soul, R&B, Pop | Label: Epic/LV Records | Catalog Number: 484383 9

In a way, it’s a shame that Luther Vandross’ Songs, his 1994 album of other people’s hits, became the biggest hit of his career, for it obscured one of his greatest talents: songwriting. The best soul singer of the ’80s is back with Your Secret Love, his first album of original, non-Christmas songs since 1993’s Never Let Me Go. He hasn’t lost his knack for big, emotional melodies and for scenarios that find happiness tantalizingly close, but still out of reach.–Geoffrey Himes.

EAC Log
Exact Audio Copy V0.99 prebeta 4 from 23. January 2008

EAC extraction logfile from 5. November 2008, 21:12

Luther Vandross / Your Secret Love

Used drive : PIONEER DVD-RW DVR-106D Adapter: 1 ID: 0

Read mode : Secure
Utilize accurate stream : Yes
Defeat audio cache : Yes
Make use of C2 pointers : No

Read offset correction : 48
Overread into Lead-In and Lead-Out : No
Fill up missing offset samples with silence : Yes
Delete leading and trailing silent blocks : No
Null samples used in CRC calculations : Yes
Used interface : Native Win32 interface for Win NT & 2000
Gap handling : Appended to previous track

Used output format : User Defined Encoder
Selected bitrate : 128 kBit/s
Quality : High
Add ID3 tag : No
Command line compressor : C:Program FilesExact Audio CopyFlacflac.exe
Additional command line options : -V -8 -T "artist=%a" -T "title=%t" -T "album=%g" -T "date=%y" -T "tracknumber=%n" -T "genre=%m" %s

TOC of the extracted CD

Track | Start | Length | Start sector | End sector
––––––––––––––––––––––––––––-
1 | 0:00.00 | 4:12.37 | 0 | 18936
2 | 4:12.37 | 5:12.10 | 18937 | 42346
3 | 9:24.47 | 4:34.58 | 42347 | 62954
4 | 13:59.30 | 5:12.70 | 62955 | 86424
5 | 19:12.25 | 5:35.40 | 86425 | 111589
6 | 24:47.65 | 4:50.45 | 111590 | 133384
7 | 29:38.35 | 5:39.37 | 133385 | 158846
8 | 35:17.72 | 5:45.55 | 158847 | 184776
9 | 41:03.52 | 5:31.70 | 184777 | 209671
10 | 46:35.47 | 5:07.00 | 209672 | 232696
11 | 51:42.47 | 3:44.35 | 232697 | 249531
12 | 55:27.07 | 5:18.03 | 249532 | 273384

Track 1

Filename D:EACLuther Vandross – 1996 – Your Secret Love1 – Your Secret Love.wav

Pre-gap length 0:00:02.00

Peak level 100.0 %
Track quality 100.0 %
Test CRC 346408CF
Copy CRC 346408CF
Track not present in AccurateRip database
Copy OK

Track 2

Filename D:EACLuther Vandross – 1996 – Your Secret Love2 – Love Don’t Hurt You Anymore.wav

Peak level 100.0 %
Track quality 99.9 %
Test CRC 62C50868
Copy CRC 62C50868
Track not present in AccurateRip database
Copy OK

Track 3

Filename D:EACLuther Vandross – 1996 – Your Secret Love3 – It’s Hard For Me To Say.wav

Pre-gap length 0:00:00.20

Peak level 100.0 %
Track quality 100.0 %
Test CRC 962CEFF2
Copy CRC 962CEFF2
Track not present in AccurateRip database
Copy OK

Track 4

Filename D:EACLuther Vandross – 1996 – Your Secret Love4 – Crazy Love.wav

Peak level 100.0 %
Track quality 100.0 %
Test CRC B861175C
Copy CRC B861175C
Track not present in AccurateRip database
Copy OK

Track 5

Filename D:EACLuther Vandross – 1996 – Your Secret Love5 – I Can Make It Better.wav

Peak level 100.0 %
Track quality 100.0 %
Test CRC 03E00018
Copy CRC 03E00018
Track not present in AccurateRip database
Copy OK

Track 6

Filename D:EACLuther Vandross – 1996 – Your Secret Love6 – Too Proud To Beg.wav

Pre-gap length 0:00:00.20

Peak level 100.0 %
Track quality 100.0 %
Test CRC A03897E4
Copy CRC A03897E4
Track not present in AccurateRip database
Copy OK

Track 7

Filename D:EACLuther Vandross – 1996 – Your Secret Love7 – I Can’t Wait No Longer (Let’s Do This).wav

Pre-gap length 0:00:00.50

Peak level 100.0 %
Track quality 100.0 %
Test CRC 3984CA1F
Copy CRC 3984CA1F
Track not present in AccurateRip database
Copy OK

Track 8

Filename D:EACLuther Vandross – 1996 – Your Secret Love8 – Nobody To Love.wav

Peak level 100.0 %
Track quality 100.0 %
Test CRC 71164166
Copy CRC 71164166
Track not present in AccurateRip database
Copy OK

Track 9

Filename D:EACLuther Vandross – 1996 – Your Secret Love9 – Whether Or Not The World Gets Better.wav

Peak level 100.0 %
Track quality 100.0 %
Test CRC 8334E233
Copy CRC 8334E233
Track not present in AccurateRip database
Copy OK

Track 10

Filename D:EACLuther Vandross – 1996 – Your Secret Love10 – This Time I’m Right.wav

Peak level 100.0 %
Track quality 100.0 %
Test CRC F2B527EB
Copy CRC F2B527EB
Track not present in AccurateRip database
Copy OK

Track 11

Filename D:EACLuther Vandross – 1996 – Your Secret Love11 – Knocks Me Off My Feet.wav

Pre-gap length 0:00:00.32

Peak level 100.0 %
Track quality 99.9 %
Test CRC ADF5377D
Copy CRC ADF5377D
Track not present in AccurateRip database
Copy OK

Track 12

Filename D:EACLuther Vandross – 1996 – Your Secret Love12 – Going Out Of My Head.wav

Peak level 100.0 %
Track quality 100.0 %
Test CRC 30AED92D
Copy CRC 30AED92D
Track not present in AccurateRip database
Copy OK

None of the tracks are present in the AccurateRip database

No errors occurred

End of status report

Tracklist:
1 Your Secret Love
2 Love Don’t Love You Anymore
3 It’s Hard For Me To Say
4 Crazy Love
5 I Can Make It Better
6 Too Proud To Beg
7 I Can’t Wait No Longer (Let’s Do This)
8 Nobody To Love
9 Whether Or Not The World Gets Better
10 This Time I’m Right
11 Knocks Me Off My Feet
12 Goin’ Out Of My Head

Thanks to the original ripper

Luther Vandross – Your Secret Love (1996) Download, Warez, DDL, Free, Full Album, Torrent, Legal.

Download