Lumieres – La musique du XVIIIeme siecle (29 CD): Part 04 [2011]

Download
Lumieres - La musique du XVIIIeme siecle (29 CD): Part 04 [2011]

Lumières – La musique du XVIIIème siècle (29 CD): Part 04 [2011]
Classical | Harmonia Mundi 2908601.30 | TT: 60.08+47.54+61.38 | EAC (FLAC, cue, log) | Covers | 680 Mb

The eighteenth century is probably the most extraordinary period of transformation Europe has known since antiquity. Political upheavals kept pace with the innumerable inventions and discoveries of the age; every sector of the arts and of intellectual and material life was turned upside down. Between the end of the reign of Louis XIV and the revolution of 1789, music in its turn underwent a radical mutation that struck at the very heart of a well-established musical language. In this domain too, we are all children of the Age of Enlightenment: our conception of music and the way we ‘consume’ it still follows in many respects the agenda set by the eighteenth century. And it is not entirely by chance that harmonia mundi has chosen to offer you in 2011 a survey of this musical revolution which, without claiming to be exhaustive, will enable you to grasp the principal outlines of musical creation between the twilight of the Baroque and the dawn of Romanticism.

CD13-14: Rameau – Castor et Pollux

Lumieres - La musique du XVIIIeme siecle (29 CD): Part 04 [2011]

Track List & Cast:
CD13 [60.08]
01. Prologue. Ouverture
02. Chœur des Arts et des Plaisirs: Vénus, ô Vénus
03. Symphonie
04. Mars: Je vous revois, belle Déesse
05. Gavottes. L’Amour: Renais, plus brillante
06. Premier Menuet. Tambourin. L’Amours, chœur: Naisez, dous de Flore
07. Deuxième Menuet. Tambourin. Minerve: D’un spectacle nouveau/Ouverture (reprise)
08. Acte I. Troupe de Spartiates: Que tout gémisse
09. Télaïre, Phébé: Où courez-vous?
10. Télaïre: Tristes apprêts, pâles flambeaux
11. Symphonie guerrière. Télaïre: D’où partent ces cris nouveaux? / Premier Air pour les Athlètes: Eclatez, fières trompettes
12. Deuxième et troisième Airs des Athlètes
13. Télaïre, Pollux: Je remets à vos pieds ces dépouilles sanglantes
14. Premier Air pour les Athlètes (reprise)

EAC
Exact Audio Copy V1.0 beta 3 from 29. August 2011

EAC extraction logfile from 7. February 2017, 11:48

William Christie, Les Arts Florissants / Rameau – Castor et Pollux CD1

Used drive : PIONEER BD-RW BDR-207M Adapter: 0 ID: 0

Read mode : Secure
Utilize accurate stream : Yes
Defeat audio cache : Yes
Make use of C2 pointers : No

Read offset correction : 667
Overread into Lead-In and Lead-Out : No
Fill up missing offset samples with silence : Yes
Delete leading and trailing silent blocks : No
Null samples used in CRC calculations : Yes
Used interface : Native Win32 interface for Win NT & 2000

Used output format : User Defined Encoder
Selected bitrate : 128 kBit/s
Quality : High
Add ID3 tag : No
Command line compressor : C:Program FilesExact Audio CopyFlacflac.exe
Additional command line options : -V -8 -T "Date=%year%" -T "Genre=%genre%" %source%

TOC of the extracted CD

Track | Start | Length | Start sector | End sector
––––––––––––––––––––––––––––-
1 | 0:00.33 | 4:10.72 | 33 | 18854
2 | 4:11.30 | 6:57.43 | 18855 | 50172
3 | 11:08.73 | 3:09.17 | 50173 | 64364
4 | 14:18.15 | 2:29.28 | 64365 | 75567
5 | 16:47.43 | 3:29.67 | 75568 | 91309
6 | 20:17.35 | 2:50.43 | 91310 | 104102
7 | 23:08.03 | 5:10.67 | 104103 | 127419
8 | 28:18.70 | 3:32.55 | 127420 | 143374
9 | 31:51.50 | 5:26.35 | 143375 | 167859
10 | 37:18.10 | 5:52.70 | 167860 | 194329
11 | 43:11.05 | 8:20.35 | 194330 | 231864
12 | 51:31.40 | 2:51.05 | 231865 | 244694
13 | 54:22.45 | 4:54.70 | 244695 | 266814
14 | 59:17.40 | 0:53.63 | 266815 | 270852

Range status and errors

Selected range

Filename C:Rameau – Castor et Pollux CD1.wav

Peak level 79.6 %
Extraction speed 7.2 X
Range quality 100.0 %
Test CRC 558A267B
Copy CRC 558A267B
Copy OK

No errors occurred

End of status report

==== Log checksum 9851807E16FDBB09BBA9F8E80309AE3306C4436A2492D70BE0B8FA7687DC72DF ====

CD14 [47.54]
01. Acte II. Pollux: Nature, Amour, qui partagez mon cœur
02. Le Grand-Prêtre: Le souverain des Dieux
03. Jupiter, Pollux: Ma voix, puissant maître du monde
04. Entrée d’Hébé et de sa suite: Connaissez notre puissance
05. Air gracieux pour Hébé et ses suivantes: Qu’Hébé de fleurs
06. Deuxième Air pour Hébé et ses suivantes
07. Acte III. Phébé: Rassemblez-vous, peuples
08. Télaïre: Son char a reculé tout à coup à mes yeux
09. Phébé: Sortez d’esclavage
10. Chœur des Démons: Brisons tous nos fers
11. Phébé: Tout cède à ce héros vainqueur

EAC
Exact Audio Copy V1.0 beta 3 from 29. August 2011

EAC extraction logfile from 7. February 2017, 12:21

William Christie, Les Arts Florissants / Rameau – Castor et Pollux CD2

Used drive : PIONEER BD-RW BDR-207M Adapter: 0 ID: 0

Read mode : Secure
Utilize accurate stream : Yes
Defeat audio cache : Yes
Make use of C2 pointers : No

Read offset correction : 667
Overread into Lead-In and Lead-Out : No
Fill up missing offset samples with silence : Yes
Delete leading and trailing silent blocks : No
Null samples used in CRC calculations : Yes
Used interface : Native Win32 interface for Win NT & 2000

Used output format : User Defined Encoder
Selected bitrate : 128 kBit/s
Quality : High
Add ID3 tag : No
Command line compressor : C:Program FilesExact Audio CopyFlacflac.exe
Additional command line options : -V -8 -T "Date=%year%" -T "Genre=%genre%" %source%

TOC of the extracted CD

Track | Start | Length | Start sector | End sector
––––––––––––––––––––––––––––-
1 | 0:00.33 | 7:15.02 | 33 | 32659
2 | 7:15.35 | 2:03.13 | 32660 | 41897
3 | 9:18.48 | 5:47.07 | 41898 | 67929
4 | 15:05.55 | 4:05.20 | 67930 | 86324
5 | 19:11.00 | 6:03.70 | 86325 | 113619
6 | 25:14.70 | 5:58.08 | 113620 | 140477
7 | 31:13.03 | 5:41.52 | 140478 | 166104
8 | 36:54.55 | 3:42.38 | 166105 | 182792
9 | 40:37.18 | 3:10.62 | 182793 | 197104
10 | 43:48.05 | 3:09.20 | 197105 | 211299
11 | 46:57.25 | 1:01.03 | 211300 | 215877

Range status and errors

Selected range

Filename C:Rameau – Castor et Pollux CD2.wav

Peak level 98.5 %
Extraction speed 6.8 X
Range quality 100.0 %
Test CRC 59FDB487
Copy CRC 59FDB487
Copy OK

No errors occurred

End of status report

==== Log checksum AB0E840D4E0C885DF252567185547A36AB7D31D2AEE6AE317B35B3B2E9E5C4D3 ====

CD15 [61.38]
01. Acte IV. Castor: Séjour de l’éternelle paix
02. Chœur des Ombres heureuses: Qu’il soit heureux comme nous
03. Loure. Une Ombre: Ici se lève l’aurore
04. Gavotte. Une Ombre: Sur les Ombres fugitives
05. Passepieds. Une autre Ombre: Autant d’amours que de fleurs
06. Chœur: Fuyez, fuyez, Ombres légères
07. Chœur des Ombres: Revenez, revenez sur les rivages sombres
08. Acte V. Phébé: Castor revoit le jour
09. Castor, Télaïre: Le Ciel est donc touché
10. Castor: Peuples, éloignez-vous
11. Télaïre: Qu’ai-je entendu! Quel bruit!
12. Jupiter: Les Destins sont contents
13. Jupiter: Palais de ma grandeur où je dicte mes lois
14. Entrée des Astres. Gigue
15. Ariette. Une planète: Brillez, brillez, Astres nouveaux
16. Chaconne. Chœurs: Que les Cieux, que la Terre et l’Onde

Castor – Howard Crook
Pollux – Jérôme Corréas
Télaïre – Agnès Mellon
Phébé – Véronique Gens
Mars/Jupiter – Rene Schirrer
Vénus/Une Ombre heureuse/Une Planète – Sadrine Piau
L’Amour/Le Grand-Prêtre de Jupiter – Mark Padmore
Minerve – Claire Brua
Une suivante d’Hébé/Un Plaisir – Sophie Daneman
Deux Athlètes – Andrian Brand, Jean-Claude Sarragosse
Les Arts Florissants
Conductor – William Christie

EAC
Exact Audio Copy V1.0 beta 3 from 29. August 2011

EAC extraction logfile from 7. February 2017, 13:02

William Christie, Les Arts Florissants / Rameau – Castor et Pollux CD3

Used drive : PIONEER BD-RW BDR-207M Adapter: 0 ID: 0

Read mode : Secure
Utilize accurate stream : Yes
Defeat audio cache : Yes
Make use of C2 pointers : No

Read offset correction : 667
Overread into Lead-In and Lead-Out : No
Fill up missing offset samples with silence : Yes
Delete leading and trailing silent blocks : No
Null samples used in CRC calculations : Yes
Used interface : Native Win32 interface for Win NT & 2000

Used output format : User Defined Encoder
Selected bitrate : 128 kBit/s
Quality : High
Add ID3 tag : No
Command line compressor : C:Program FilesExact Audio CopyFlacflac.exe
Additional command line options : -V -8 -T "Date=%year%" -T "Genre=%genre%" %source%

TOC of the extracted CD

Track | Start | Length | Start sector | End sector
––––––––––––––––––––––––––––-
1 | 0:00.33 | 4:24.62 | 33 | 19894
2 | 4:25.20 | 2:40.35 | 19895 | 31929
3 | 7:05.55 | 4:51.33 | 31930 | 53787
4 | 11:57.13 | 3:35.22 | 53788 | 69934
5 | 15:32.35 | 3:19.38 | 69935 | 84897
6 | 18:51.73 | 7:29.37 | 84898 | 118609
7 | 26:21.35 | 2:38.03 | 118610 | 130462
8 | 28:59.38 | 1:36.02 | 130463 | 137664
9 | 30:35.40 | 4:00.68 | 137665 | 155732
10 | 34:36.33 | 2:41.72 | 155733 | 167879
11 | 37:18.30 | 3:28.50 | 167880 | 183529
12 | 40:47.05 | 2:21.00 | 183530 | 194104
13 | 43:08.05 | 5:08.00 | 194105 | 217204
14 | 48:16.05 | 2:52.45 | 217205 | 230149
15 | 51:08.50 | 3:30.00 | 230150 | 245899
16 | 54:38.50 | 7:02.40 | 245900 | 277589

Range status and errors

Selected range

Filename C:Rameau – Castor et Pollux CD3.wav

Peak level 100.0 %
Extraction speed 7.3 X
Range quality 100.0 %
Test CRC 272B63D6
Copy CRC 272B63D6
Copy OK

No errors occurred

End of status report

==== Log checksum 64F0969411F1118B90D4DFD4670BFD0082CC3AFEC7A7FA868BB6AC2A460762EE ====

Lumieres – La musique du XVIIIeme siecle (29 CD): Part 04 [2011] Download, Warez, DDL, Free, Full Album, Torrent, Legal.

Download