Lucky Peterson – Beyond Cool (1993) {Verve 521 147-2} (ft. Laurent Cugny)

Download
Lucky Peterson - Beyond Cool (1993) {Verve 521 147-2} (ft. Laurent Cugny)

Lucky Peterson – Beyond Cool (1993) {Verve 521 147-2} (ft. Laurent Cugny)
EAC rip (secure mode) | FLAC (tracks)+CUE+LOG -> 404 Mb | MP3 @320 -> 138 Mb
Full Artwork @ 300 dpi (png) -> 31 Mb | 5% repair rar
© 1993 Verve / Polydor / PolyGram / Gitanes Jazz | 521 147-2
Blues / Blues Rock / Soul Blues / Modern Electric Blues / Funk Blues

Here Lucky goes to Memphis. Several years into a solo career, the former blues whiz kid plays good keyboards and guitar, and sings stirringly on originals and covers from all over the black music map (Stevie Wonder, Jimi Hendrix, Les McCann & Eddie Harris, blues piano master Roosevelt Sykes, etc.) His modern soul-cum-blues is hot, sweaty, and aggressive, and he gets the job done in busy arrangements shared with the Memphis Horns, honey-throated back-up singers, and muscular hired guns like bassist Willie Weeks and drummer Crusher Green. Peterson had the good sense to collaborate with New Yorker Jim Payne when writing five songs for the album, including the killer slow blues instrumental that doubles as the album title.

Lucky Peterson - Beyond Cool (1993) {Verve 521 147-2} (ft. Laurent Cugny)

Very hot album. Got to see Lucky play at the 2010 4th. of July Portland Blues Fest Portland, OR. which sends its proceeds to help the homeless and fund a food drive for all the homeless shelters. I hope to see him come back to Portland as Lucky is the REAL DEAL when it comes to a smoking hoy rockin blues band from New York. He is one of the best Hammond B-3 players I have heard along with very accomplished lead guitar that jams. He brought out an old 1957 Fender Strat and jammed with his latest lead guitar player which blew me away. I have followed his career since 1990 and before that when he was playing with Melvin Taylor Plays The Blues as his Organist. This is another fine album from 1989 that has every song as good as it gets.

Lucky Peterson - Beyond Cool (1993) {Verve 521 147-2} (ft. Laurent Cugny)

Personnel:
Lucky Peterson – vocals, Hammond organ, guitar, clavinet, acoustic piano, Wurlitzer electric piano, Wurlitzer electric guitar
Danny Draher – rhythm guitar
Jack Holder – electric and acoustic rhythm guitars
Richard Ford – steel guitar on 5
Willie Weeks – bass
Crusher Green – drums
Arto Tuncboyaciyan – percussion on 5
Brent Nance – percussion on 11

The Memphis Horns
Wayne Jackson – trumpet, trombone
Andrew Love – tenor saxophone

Jaqueline Johnson, Jacquelyn Reddick – background vocals

All songs arranged by Lucky Peterson
Horns arranged by Laurent Cugny except 1,7 and 12, arranged by The Memphis Horns.

tracklist:
01 – I’m Talking To You
02 – Count On Me
03 – Compared To What
04 – Up From The Skies
05 – Your Love Is Amazing
06 – That’s What It Ought To Be
07 – Pouring Money On A Drowning Love Affair
08 – Beyond Cool
09 – You Haven’t Got Nothing
10 – Your Good Thing Is About To Run Out
11 – You Can’t Fool Me
12 – Drivin’ Wheel

EAC log
Exact Audio Copy V1.0 beta 3 from 29. August 2011

EAC extraction logfile from 12. October 2013, 20:45

Lucky Peterson / Beyond Cool

Used drive : HL-DT-STDVDRAM GE20LU10 Adapter: 3 ID: 0

Read mode : Secure
Utilize accurate stream : Yes
Defeat audio cache : Yes
Make use of C2 pointers : No

Read offset correction : 667
Overread into Lead-In and Lead-Out : No
Fill up missing offset samples with silence : Yes
Delete leading and trailing silent blocks : No
Null samples used in CRC calculations : Yes
Used interface : Native Win32 interface for Win NT & 2000
Gap handling : Appended to previous track

Used output format : User Defined Encoder
Selected bitrate : 128 kBit/s
Quality : High
Add ID3 tag : No
Command line compressor : C:Program FilesExact Audio CopyFlacflac.exe
Additional command line options : -8 -V -T "ARTIST=%artist%" -T "TITLE=%title%" -T "ALBUM=%albumtitle%" -T "DATE=%year%" -T "TRACKNUMBER=%tracknr%" -T "TOTALTRACKS=%numtracks%" -T "GENRE=%genre%" -T "ALBUMARTIST=%albumartist%" -T "ALBUM ARTIST=%albumartist%" -T "COMMENT=EAC Secure Mode, Test & Copy, AccurateRip, FLAC -8" %source%

TOC of the extracted CD

Track | Start | Length | Start sector | End sector
––––––––––––––––––––––––––––-
1 | 0:00.33 | 4:28.12 | 33 | 20144
2 | 4:28.45 | 5:19.13 | 20145 | 44082
3 | 9:47.58 | 5:09.47 | 44083 | 67304
4 | 14:57.30 | 4:53.65 | 67305 | 89344
5 | 19:51.20 | 4:57.13 | 89345 | 111632
6 | 24:48.33 | 4:38.12 | 111633 | 132494
7 | 29:26.45 | 3:50.15 | 132495 | 149759
8 | 33:16.60 | 7:27.55 | 149760 | 183339
9 | 40:44.40 | 4:31.60 | 183340 | 203724
10 | 45:16.25 | 4:09.50 | 203725 | 222449
11 | 49:26.00 | 4:01.43 | 222450 | 240567
12 | 53:27.43 | 5:03.25 | 240568 | 263317

Track 1

Filename D:EAC_FLACLucky Peterson – Beyond Cool1 – I’m Talking To You.wav

Pre-gap length 0:00:02.33

Peak level 94.0 %
Extraction speed 1.0 X
Track quality 100.0 %
Test CRC 8EAE6636
Copy CRC 8EAE6636
Accurately ripped (confidence 13) [A1B8F4C4] (AR v2)
Copy OK

Track 2

Filename D:EAC_FLACLucky Peterson – Beyond Cool2 – Count On Me.wav

Pre-gap length 0:00:02.00

Peak level 91.6 %
Extraction speed 1.2 X
Track quality 100.0 %
Test CRC 1EDDBB44
Copy CRC 1EDDBB44
Accurately ripped (confidence 13) [836E51FB] (AR v2)
Copy OK

Track 3

Filename D:EAC_FLACLucky Peterson – Beyond Cool3 – Compared To What.wav

Pre-gap length 0:00:01.40

Peak level 82.7 %
Extraction speed 1.3 X
Track quality 100.0 %
Test CRC 6B025952
Copy CRC 6B025952
Accurately ripped (confidence 13) [DF60CD8D] (AR v2)
Copy OK

Track 4

Filename D:EAC_FLACLucky Peterson – Beyond Cool4 – Up From The Skies.wav

Pre-gap length 0:00:01.67

Peak level 97.3 %
Extraction speed 1.4 X
Track quality 100.0 %
Test CRC 721B3EF9
Copy CRC 721B3EF9
Accurately ripped (confidence 13) [2E75A178] (AR v2)
Copy OK

Track 5

Filename D:EAC_FLACLucky Peterson – Beyond Cool5 – Your Love Is Amazing.wav

Pre-gap length 0:00:01.72

Peak level 97.3 %
Extraction speed 1.6 X
Track quality 100.0 %
Test CRC 39DD34D9
Copy CRC 39DD34D9
Accurately ripped (confidence 12) [0EA7E500] (AR v2)
Copy OK

Track 6

Filename D:EAC_FLACLucky Peterson – Beyond Cool6 – That’s What It Ought To Be.wav

Pre-gap length 0:00:01.60

Peak level 97.3 %
Extraction speed 1.6 X
Track quality 100.0 %
Test CRC F531A149
Copy CRC F531A149
Accurately ripped (confidence 13) [AEC3D7AA] (AR v2)
Copy OK

Track 7

Filename D:EAC_FLACLucky Peterson – Beyond Cool7 – Pouring Money On A Drowning Love Affair.wav

Pre-gap length 0:00:00.70

Peak level 97.3 %
Extraction speed 1.7 X
Track quality 100.0 %
Test CRC 217311D9
Copy CRC 217311D9
Accurately ripped (confidence 13) [EEF71A38] (AR v2)
Copy OK

Track 8

Filename D:EAC_FLACLucky Peterson – Beyond Cool8 – Beyond Cool.wav

Pre-gap length 0:00:01.40

Peak level 92.3 %
Extraction speed 1.9 X
Track quality 100.0 %
Test CRC 8D4A3282
Copy CRC 8D4A3282
Accurately ripped (confidence 13) [A7D0DC30] (AR v2)
Copy OK

Track 9

Filename D:EAC_FLACLucky Peterson – Beyond Cool9 – You Haven’t Got Nothing.wav

Pre-gap length 0:00:01.10

Peak level 90.6 %
Extraction speed 1.9 X
Track quality 100.0 %
Test CRC 8354FA68
Copy CRC 8354FA68
Accurately ripped (confidence 13) [2DBC6DF2] (AR v2)
Copy OK

Track 10

Filename D:EAC_FLACLucky Peterson – Beyond Cool10 – Your Good Thing Is About To Run Out.wav

Pre-gap length 0:00:00.62

Peak level 90.6 %
Extraction speed 1.7 X
Track quality 99.9 %
Test CRC D0CAA2DC
Copy CRC D0CAA2DC
Accurately ripped (confidence 13) [67D8322B] (AR v2)
Copy OK

Track 11

Filename D:EAC_FLACLucky Peterson – Beyond Cool11 – You Can’t Fool Me.wav

Pre-gap length 0:00:01.20

Peak level 100.0 %
Extraction speed 2.0 X
Track quality 100.0 %
Test CRC A04DF7B3
Copy CRC A04DF7B3
Accurately ripped (confidence 13) [654A1D49] (AR v2)
Copy OK

Track 12

Filename D:EAC_FLACLucky Peterson – Beyond Cool12 – Drivin’ Wheel.wav

Pre-gap length 0:00:01.35

Peak level 97.3 %
Extraction speed 2.2 X
Track quality 100.0 %
Test CRC C22FA507
Copy CRC C22FA507
Accurately ripped (confidence 13) [813C450C] (AR v2)
Copy OK

All tracks accurately ripped

No errors occurred

End of status report

==== Log checksum 137D466EA6B9D83CC14AC0E92077789099D8843427628DF978B481EF6972F2C7 ====

Lucky Peterson - Beyond Cool (1993) {Verve 521 147-2} (ft. Laurent Cugny)

Lucky Peterson - Beyond Cool (1993) {Verve 521 147-2} (ft. Laurent Cugny)
===

Lucky Peterson – Beyond Cool (1993) {Verve 521 147-2} (ft. Laurent Cugny) Download, Warez, DDL, Free, Full Album, Torrent, Legal.

Download