Lole – The Movement (Poly Album) (2007)

Download
Lole - The Movement (Poly Album) (2007)

Lole – The Movement (Poly Album) (2007)
EAC Rip | FLAC with CUE and log | scans | 386 mb
MP3 CBR 320kbps | RAR | 157 mb
Genre: R&B, soul

The Movement (Poly Album) is the 2007 album by Samoan singer Lole Usoalii, better known under the mononym Lole. This was released on the Urban Sounds Samoa and Exile Music.

Lole - The Movement (Poly Album) (2007)

01. Dedication
02. Arise (Tu I Luga)
03. One Heart (Tasi)
04. Redemption (Oso Ae Le La)
05. Interlude
06. Movement Song (Alo Lau Foe)
07. Amazing (Proverbs 31)
08. Interlude
09. S.A.M.O.A.
10. Hymn (Le Aso Fiafia)
11. Medley
12. Praise
13. Storm (He’ll Make A Way)
14. Interlude
15. Better Days
16. Interlude
17. Lota Nuu (Samoana Bonus Track)

Lole - The Movement (Poly Album) (2007)
EAC Log
Exact Audio Copy V1.1 from 23. June 2015

EAC extraction logfile from 10. December 2016, 23:00

Lole / The Movement

Used drive : TEAC DVD-ROM DV-28SW Adapter: 1 ID: 0

Read mode : Secure
Utilize accurate stream : Yes
Defeat audio cache : Yes
Make use of C2 pointers : No

Read offset correction : 6
Overread into Lead-In and Lead-Out : No
Fill up missing offset samples with silence : Yes
Delete leading and trailing silent blocks : No
Null samples used in CRC calculations : Yes
Used interface : Native Win32 interface for Win NT & 2000
Gap handling : Appended to previous track

Used output format : Internal WAV Routines
Sample format : 44.100 Hz; 16 Bit; Stereo

TOC of the extracted CD

Track | Start | Length | Start sector | End sector
––––––––––––––––––––––––––––-
1 | 0:00.00 | 0:22.73 | 0 | 1722
2 | 0:22.73 | 5:55.07 | 1723 | 28354
3 | 6:18.05 | 5:00.01 | 28355 | 50855
4 | 11:18.06 | 5:15.47 | 50856 | 74527
5 | 16:33.53 | 2:14.57 | 74528 | 84634
6 | 18:48.35 | 4:23.52 | 84635 | 104411
7 | 23:12.12 | 4:01.50 | 104412 | 122536
8 | 27:13.62 | 1:18.61 | 122537 | 128447
9 | 28:32.48 | 4:06.73 | 128448 | 146970
10 | 32:39.46 | 5:11.38 | 146971 | 170333
11 | 37:51.09 | 7:47.64 | 170334 | 205422
12 | 45:38.73 | 4:10.37 | 205423 | 224209
13 | 49:49.35 | 4:14.19 | 224210 | 243278
14 | 54:03.54 | 2:34.62 | 243279 | 254890
15 | 56:38.41 | 3:42.11 | 254891 | 271551
16 | 60:20.52 | 2:07.50 | 271552 | 281126
17 | 62:28.27 | 4:41.04 | 281127 | 302205

Track 1

Filename C:My DocumentsMy FLACLole – The Movement (2007) [FLAC]1 – Dedication.wav

Pre-gap length 0:00:02.00

Peak level 28.8 %
Extraction speed 1.1 X
Track quality 100.0 %
Test CRC 48A38CE9
Copy CRC 48A38CE9
Track not present in AccurateRip database
Copy OK

Track 2

Filename C:My DocumentsMy FLACLole – The Movement (2007) [FLAC]2 – Arise (Tu I Luga).wav

Peak level 93.8 %
Extraction speed 3.1 X
Track quality 100.0 %
Test CRC FDA86B6A
Copy CRC FDA86B6A
Track not present in AccurateRip database
Copy OK

Track 3

Filename C:My DocumentsMy FLACLole – The Movement (2007) [FLAC]3 – One Heart (Tasi).wav

Pre-gap length 0:00:02.00

Peak level 97.7 %
Extraction speed 3.3 X
Track quality 100.0 %
Test CRC 94D40ACA
Copy CRC 94D40ACA
Track not present in AccurateRip database
Copy OK

Track 4

Filename C:My DocumentsMy FLACLole – The Movement (2007) [FLAC]4 – Redemption (Oso Ae Le La).wav

Pre-gap length 0:00:02.00

Peak level 94.0 %
Extraction speed 3.4 X
Track quality 100.0 %
Test CRC 156A7C35
Copy CRC 156A7C35
Track not present in AccurateRip database
Copy OK

Track 5

Filename C:My DocumentsMy FLACLole – The Movement (2007) [FLAC]5 – Interlude.wav

Pre-gap length 0:00:02.00

Peak level 67.4 %
Extraction speed 2.5 X
Track quality 99.9 %
Test CRC 021FDB0A
Copy CRC 021FDB0A
Track not present in AccurateRip database
Copy OK

Track 6

Filename C:My DocumentsMy FLACLole – The Movement (2007) [FLAC]6 – Movement Song (Alo Lau Foe).wav

Pre-gap length 0:00:02.00

Peak level 97.7 %
Extraction speed 3.1 X
Track quality 100.0 %
Test CRC FDFE96A8
Copy CRC FDFE96A8
Track not present in AccurateRip database
Copy OK

Track 7

Filename C:My DocumentsMy FLACLole – The Movement (2007) [FLAC]7 – Amazing (Proverbs 31).wav

Pre-gap length 0:00:02.00

Peak level 95.0 %
Extraction speed 2.5 X
Track quality 99.9 %
Test CRC 44EB5C5B
Copy CRC 44EB5C5B
Track not present in AccurateRip database
Copy OK

Track 8

Filename C:My DocumentsMy FLACLole – The Movement (2007) [FLAC]8 – Interlude.wav

Pre-gap length 0:00:02.00

Peak level 71.1 %
Extraction speed 1.9 X
Track quality 100.0 %
Test CRC 6ED9B91D
Copy CRC 6ED9B91D
Track not present in AccurateRip database
Copy OK

Track 9

Filename C:My DocumentsMy FLACLole – The Movement (2007) [FLAC]9 – S.A.M.O.A..wav

Pre-gap length 0:00:02.00

Peak level 93.6 %
Extraction speed 2.2 X
Track quality 99.9 %
Test CRC BA6DD741
Copy CRC BA6DD741
Track not present in AccurateRip database
Copy OK

Track 10

Filename C:My DocumentsMy FLACLole – The Movement (2007) [FLAC]10 – Hymn (Le Aso Fiafia).wav

Pre-gap length 0:00:02.00

Peak level 70.2 %
Extraction speed 3.5 X
Track quality 100.0 %
Test CRC 80C0062A
Copy CRC 80C0062A
Track not present in AccurateRip database
Copy OK

Track 11

Filename C:My DocumentsMy FLACLole – The Movement (2007) [FLAC]11 – Medley.wav

Pre-gap length 0:00:02.00

Peak level 92.6 %
Extraction speed 3.6 X
Track quality 100.0 %
Test CRC 54C6EAA5
Copy CRC 54C6EAA5
Track not present in AccurateRip database
Copy OK

Track 12

Filename C:My DocumentsMy FLACLole – The Movement (2007) [FLAC]12 – Praise.wav

Pre-gap length 0:00:01.74

Peak level 97.7 %
Extraction speed 4.6 X
Track quality 100.0 %
Test CRC A459006F
Copy CRC A459006F
Track not present in AccurateRip database
Copy OK

Track 13

Filename C:My DocumentsMy FLACLole – The Movement (2007) [FLAC]13 – Storm (He’ll Make A Way).wav

Pre-gap length 0:00:02.00

Peak level 95.8 %
Extraction speed 3.5 X
Track quality 100.0 %
Test CRC C9CE34A4
Copy CRC C9CE34A4
Track not present in AccurateRip database
Copy OK

Track 14

Filename C:My DocumentsMy FLACLole – The Movement (2007) [FLAC]14 – Interlude.wav

Pre-gap length 0:00:02.00

Peak level 69.2 %
Extraction speed 3.7 X
Track quality 100.0 %
Test CRC 52A4A94F
Copy CRC 52A4A94F
Track not present in AccurateRip database
Copy OK

Track 15

Filename C:My DocumentsMy FLACLole – The Movement (2007) [FLAC]15 – Better Days.wav

Pre-gap length 0:00:02.00

Peak level 85.0 %
Extraction speed 4.0 X
Track quality 100.0 %
Test CRC CEF27759
Copy CRC CEF27759
Track not present in AccurateRip database
Copy OK

Track 16

Filename C:My DocumentsMy FLACLole – The Movement (2007) [FLAC]16 – Interlude.wav

Pre-gap length 0:00:02.00

Peak level 83.6 %
Extraction speed 4.7 X
Track quality 100.0 %
Test CRC 6D782522
Copy CRC 6D782522
Track not present in AccurateRip database
Copy OK

Track 17

Filename C:My DocumentsMy FLACLole – The Movement (2007) [FLAC]17 – Lota Nuu (Samoana Bonus Track).wav

Pre-gap length 0:00:02.00

Peak level 90.2 %
Extraction speed 4.2 X
Track quality 100.0 %
Test CRC 07E2E423
Copy CRC 07E2E423
Track not present in AccurateRip database
Copy OK

None of the tracks are present in the AccurateRip database

No errors occurred

End of status report

–– CUETools DB Plugin V2.1.6

[CTDB TOCID: JqPFvbQBPCcuFBiw7CDZEJ5M86Y-] disk not present in database
Submit result: JqPFvbQBPCcuFBiw7CDZEJ5M86Y- has been uploaded

==== Log checksum 40049532FD60707B7B7FCA1FED875D9EAD8DAE01722F8FDBBFC66C3024861F92 ====

Lole - The Movement (Poly Album) (2007)

Lole – The Movement (Poly Album) (2007) Download, Warez, DDL, Free, Full Album, Torrent, Legal.

Download