Lloyd Cole – Lloyd Cole (1990)

Download
Lloyd Cole - Lloyd Cole (1990)

Lloyd Cole – Lloyd Cole (1990)
EAC Rip | FLAC (Tracks) + Cue + Log + m3u ~ 356 Mb | MP3 CBR320 ~ 127 Mb
Scans Included (JPG, 300 dpi) | RAR 5% Recovery
Alternative/Indie Rock, Pop/Soft Rock | Polydor #841 907-2

In the two and a half years following the release of Mainstream, Lloyd Cole signed to Capitol Records in the U.S., split from the Commotions, and moved to New York. For his first solo album, he assembled a team consisting of two New York band veterans – drummer/co-producer Fred Maher and guitarist Robert Quine, both of whom had played in Richard Hell’s Voidoids and Lou Reed’s backup group – plus bassist Matthew Sweet and Commotions keyboard player Blair Cowan. As a result, Lloyd Cole boasts a tougher, harder sound than the Commotions’ records. Cole’s vocals, meanwhile, have become more direct and less stylized. Cole’s lyrics are also less adorned, and he has lightened up somewhat. Much of Lloyd Cole is musically astringent in a way Cole hasn’t managed previously, even if the album is far less ambitious than his first two records.

~ William Ruhlmann, All Music
Official Website | Wiki | Discogs | All Music

***************

Lloyd Cole - Lloyd Cole (1990)

Lloyd Cole - Lloyd Cole (1990)

Track List:

01. Don’t Look Back [3:43]
02. What Do You Know About Love? [4:09]
03. No Blue Skies [4:11]
04. Loveless [4:11]
05. Sweetheart [4:31]
06. To The Church [2:26]
07. Downtown [5:20]
08. A Long Way Down [5:23]
09. Icecream Girl [3:06]
10. Undressed [3:05]
11. I Hate To See You Baby Doing That Stuff [4:02]
12. Waterline [3:00]
13. Mercy Killing [5:15]

EAC Log
Exact Audio Copy V0.99 prebeta 4 from 23. January 2008

EAC extraction logfile from 15. May 2009, 18:24

Lloyd Cole / Lloyd Cole

Used drive : LG CD-ROM CRD-8322B Adapter: 0 ID: 1

Read mode : Secure
Utilize accurate stream : Yes
Defeat audio cache : Yes
Make use of C2 pointers : No

Read offset correction : -24
Overread into Lead-In and Lead-Out : No
Fill up missing offset samples with silence : Yes
Delete leading and trailing silent blocks : No
Null samples used in CRC calculations : Yes
Used interface : Native Win32 interface for Win NT & 2000
Gap handling : Appended to previous track

Used output format : User Defined Encoder
Selected bitrate : 256 kBit/s
Quality : High
Add ID3 tag : No
Command line compressor : C:Program FilesFLACflac.exe
Additional command line options : -8 -A tukey(0.25) -A gauss(0.1875) -b 4096 -V -T "artist=%a" -T "title=%t" -T "album=%g" -T "date=%y" -T "tracknumber=%n" -T "genre=%m" %s –sector-align

TOC of the extracted CD

Track | Start | Length | Start sector | End sector
––––––––––––––––––––––––––––-
1 | 0:00.00 | 3:43.32 | 0 | 16756
2 | 3:43.32 | 4:09.20 | 16757 | 35451
3 | 7:52.52 | 4:10.50 | 35452 | 54251
4 | 12:03.27 | 4:10.50 | 54252 | 73051
5 | 16:14.02 | 4:31.20 | 73052 | 93396
6 | 20:45.22 | 2:26.20 | 93397 | 104366
7 | 23:11.42 | 5:20.35 | 104367 | 128401
8 | 28:32.02 | 5:22.60 | 128402 | 152611
9 | 33:54.62 | 3:06.08 | 152612 | 166569
10 | 37:00.70 | 3:05.15 | 166570 | 180459
11 | 40:06.10 | 4:01.42 | 180460 | 198576
12 | 44:07.52 | 2:59.38 | 198577 | 212039
13 | 47:07.15 | 5:15.00 | 212040 | 235664

Track 1

Filename D:MP3 TempLloyd ColeLloyd Cole1 – Lloyd Cole – Don’t Look Back.wav

Pre-gap length 0:00:02.00

Peak level 89.9 %
Track quality 100.0 %
Test CRC CDE95BC1
Copy CRC CDE95BC1
Accurately ripped (confidence 20) [3EADE855]
Copy OK

Track 2

Filename D:MP3 TempLloyd ColeLloyd Cole2 – Lloyd Cole – What Do You Know About Love .wav

Peak level 70.9 %
Track quality 100.0 %
Test CRC 8B9E3B7E
Copy CRC 8B9E3B7E
Accurately ripped (confidence 20) [61CDF927]
Copy OK

Track 3

Filename D:MP3 TempLloyd ColeLloyd Cole3 – Lloyd Cole – No Blue Skies.wav

Pre-gap length 0:00:00.32

Peak level 79.5 %
Track quality 100.0 %
Test CRC 7D932F46
Copy CRC 7D932F46
Accurately ripped (confidence 20) [30D6FA63]
Copy OK

Track 4

Filename D:MP3 TempLloyd ColeLloyd Cole4 – Lloyd Cole – Loveless.wav

Pre-gap length 0:00:00.85

Peak level 90.0 %
Track quality 100.0 %
Test CRC 8CE4684F
Copy CRC 8CE4684F
Accurately ripped (confidence 19) [16471887]
Copy OK

Track 5

Filename D:MP3 TempLloyd ColeLloyd Cole5 – Lloyd Cole – Sweetheart.wav

Pre-gap length 0:00:00.64

Peak level 74.6 %
Track quality 100.0 %
Test CRC 33D08209
Copy CRC 33D08209
Accurately ripped (confidence 20) [78C99EBD]
Copy OK

Track 6

Filename D:MP3 TempLloyd ColeLloyd Cole6 – Lloyd Cole – To The Church.wav

Peak level 69.8 %
Track quality 100.0 %
Test CRC B1499E4D
Copy CRC B1499E4D
Accurately ripped (confidence 20) [B11AA338]
Copy OK

Track 7

Filename D:MP3 TempLloyd ColeLloyd Cole7 – Lloyd Cole – Downtown.wav

Pre-gap length 0:00:01.38

Peak level 91.5 %
Track quality 99.9 %
Test CRC 363FE2C5
Copy CRC 363FE2C5
Accurately ripped (confidence 20) [A92118CB]
Copy OK

Track 8

Filename D:MP3 TempLloyd ColeLloyd Cole8 – Lloyd Cole – A Long Way Down.wav

Pre-gap length 0:00:01.52

Peak level 99.9 %
Track quality 100.0 %
Test CRC 2245B507
Copy CRC 2245B507
Accurately ripped (confidence 20) [3D7F8B9D]
Copy OK

Track 9

Filename D:MP3 TempLloyd ColeLloyd Cole9 – Lloyd Cole – Icecream Girl.wav

Pre-gap length 0:00:00.16

Peak level 86.6 %
Track quality 100.0 %
Test CRC 4FA8039D
Copy CRC 4FA8039D
Accurately ripped (confidence 20) [41654858]
Copy OK

Track 10

Filename D:MP3 TempLloyd ColeLloyd Cole10 – Lloyd Cole – Undressed.wav

Pre-gap length 0:00:00.30

Peak level 71.7 %
Track quality 100.0 %
Test CRC 53CA659D
Copy CRC 53CA659D
Accurately ripped (confidence 20) [6369BCF7]
Copy OK

Track 11

Filename D:MP3 TempLloyd ColeLloyd Cole11 – Lloyd Cole – I Hate To See You Baby Doing That Stuff.wav

Peak level 100.0 %
Track quality 100.0 %
Test CRC AB6C5531
Copy CRC AB6C5531
Accurately ripped (confidence 20) [E1462AC9]
Copy OK

Track 12

Filename D:MP3 TempLloyd ColeLloyd Cole12 – Lloyd Cole – Waterline.wav

Pre-gap length 0:00:02.17

Peak level 98.3 %
Track quality 100.0 %
Test CRC 87CDAC08
Copy CRC 87CDAC08
Accurately ripped (confidence 20) [D23908EF]
Copy OK

Track 13

Filename D:MP3 TempLloyd ColeLloyd Cole13 – Lloyd Cole – Mercy Killing.wav

Peak level 94.0 %
Track quality 99.9 %
Test CRC A1A93E36
Copy CRC A1A93E36
Accurately ripped (confidence 20) [05071033]
Copy OK

All tracks accurately ripped

No errors occurred

End of status report

DR Log
foobar2000 1.2.6 / Dynamic Range Meter 1.1.1
log date: 2017-07-10 21:59:47

––––––––––––––––––––––––––––––––––––––––
Analyzed: Lloyd Cole / Lloyd Cole
––––––––––––––––––––––––––––––––––––––––

DR Peak RMS Duration Track
––––––––––––––––––––––––––––––––––––––––
DR14 -0.92 dB -16.68 dB 3:43 01-Don’t Look Back
DR12 -2.98 dB -16.29 dB 4:09 02-What Do You Know About Love?
DR12 -1.99 dB -15.64 dB 4:11 03-No Blue Skies
DR15 -0.91 dB -18.85 dB 4:11 04-Loveless
DR11 -2.54 dB -16.41 dB 4:31 05-Sweetheart
DR12 -3.11 dB -17.08 dB 2:26 06-To The Church
DR13 -0.76 dB -16.61 dB 5:20 07-Downtown
DR15 0.00 dB -17.61 dB 5:23 08-A Long Way Down
DR14 -1.25 dB -18.25 dB 3:06 09-Icecream Girl
DR13 -2.89 dB -17.49 dB 3:05 10-Undressed
DR14 0.00 dB -15.71 dB 4:02 11-I Hate To See You Baby Doing That Stuff
DR15 -0.15 dB -16.66 dB 3:00 12-Waterline
DR13 -0.53 dB -16.63 dB 5:15 13-Mercy Killing
––––––––––––––––––––––––––––––––––––––––

Number of tracks: 13
Official DR value: DR13

Samplerate: 44100 Hz
Channels: 2
Bits per sample: 16
Bitrate: 931 kbps
Codec: FLAC
================================================================================

CUETools Log
[CUETools log; Date: 10.07.2017 21:53:06; Version: 2.1.5]
[CTDB TOCID: F2YZO1_SreVd7CR3xwsgp31PFG8-] found.
Track | CTDB Status
1 | (34/37) Accurately ripped, or (3/37) differs in 5632 samples @00:00:11-00:00:20
2 | (37/37) Accurately ripped
3 | (37/37) Accurately ripped
4 | (37/37) Accurately ripped
5 | (37/37) Accurately ripped
6 | (37/37) Accurately ripped
7 | (37/37) Accurately ripped
8 | (37/37) Accurately ripped
9 | (37/37) Accurately ripped
10 | (37/37) Accurately ripped
11 | (37/37) Accurately ripped
12 | (37/37) Accurately ripped
13 | (37/37) Accurately ripped
[AccurateRip ID: 00193393-00fbd220-b40c460d] found.
Track [ CRC | V2 ] Status
01 [3eade855|150f7682] (32+21/63) Accurately ripped
02 [61cdf927|60a8ceb1] (32+22/64) Accurately ripped
03 [30d6fa63|447bfc35] (32+22/64) Accurately ripped
04 [16471887|c4759409] (31+22/63) Accurately ripped
05 [78c99ebd|eb8c2010] (32+22/64) Accurately ripped
06 [b11aa338|0722bde6] (32+22/64) Accurately ripped
07 [a92118cb|4e4b2267] (31+23/64) Accurately ripped
08 [3d7f8b9d|4e5bf357] (32+22/64) Accurately ripped
09 [41654858|268fb995] (32+21/63) Accurately ripped
10 [6369bcf7|f6f6c90f] (32+22/64) Accurately ripped
11 [e1462ac9|e48f41f6] (31+22/63) Accurately ripped
12 [d23908ef|7c383c13] (32+22/64) Accurately ripped
13 [05071033|de750c26] (32+22/64) Accurately ripped
Offsetted by 265:
01 [a4eb6de9] (02/63) Accurately ripped
02 [92a129b1] (02/64) Accurately ripped
03 [f9ecd329] (02/64) Accurately ripped
04 [475271e8] (02/63) Accurately ripped
05 [15dea1f7] (02/64) Accurately ripped
06 [c8ccf077] (02/64) Accurately ripped
07 [11db4936] (02/64) Accurately ripped
08 [0118d795] (02/64) Accurately ripped
09 [f2995cb7] (02/63) Accurately ripped
10 [3513ce6d] (02/64) Accurately ripped
11 [99ec4ee6] (02/63) Accurately ripped
12 [68327688] (02/64) Accurately ripped
13 [497a1d32] (02/64) Accurately ripped
Offsetted by 727:
01 [144b32b5] (00/63) No match (V2 was not tested)
02 [951d8606] (05/64) Accurately ripped
03 [e4798a0c] (05/64) Accurately ripped
04 [d55b439f] (05/63) Accurately ripped
05 [ef5280ca] (05/64) Accurately ripped
06 [5c56918c] (05/64) Accurately ripped
07 [c9b5a394] (05/64) Accurately ripped
08 [89528c1c] (05/64) Accurately ripped
09 [bdda81e7] (05/63) Accurately ripped
10 [505a08a7] (05/64) Accurately ripped
11 [cc46e737] (05/63) Accurately ripped
12 [bf2498cc] (05/64) Accurately ripped
13 [e021767e] (05/64) Accurately ripped

Track Peak [ CRC32 ] [W/O NULL] [ LOG ]
– 100,0 [EC8947EF] [DC4EB4B3]
01 89,9 [CDE95BC1] [0C161CFB] CRC32
02 70,9 [8B9E3B7E] [D59CC23E] CRC32
03 79,5 [7D932F46] [B73C44DE] CRC32
04 90,0 [8CE4684F] [40D73A2A] CRC32
05 74,6 [33D08209] [D466BD65] CRC32
06 69,8 [B1499E4D] [131DF50C] CRC32
07 91,5 [363FE2C5] [CF382C04] CRC32
08 99,9 [2245B507] [C8E0B8E2] CRC32
09 86,6 [4FA8039D] [34AB0845] CRC32
10 71,7 [53CA659D] [67994F55] CRC32
11 100,0 [AB6C5531] [9A38CAC5] CRC32
12 98,3 [87CDAC08] [91DC9F40] CRC32
13 94,0 [A1A93E36] [403B4FF9] CRC32

Lloyd Cole - Lloyd Cole (1990)

See also:
Lloyd Cole And The Commotions – Easy Pieces (1985) {1993, Reissue}
Lloyd Cole & The Commotions – Mainstream (1987)
Lloyd Cole – Standards (2013)

All thanks go to the original ripper(s) …

>>> My Blog <<<

Download from icerbox.com:

Lloyd Cole – Lloyd Cole (1990) Download, Warez, DDL, Free, Full Album, Torrent, Legal.

Download