Little Hurricane – Same Sun Same Moon (2017)

Download
Little Hurricane - Same Sun Same Moon (2017)

Little Hurricane – Same Sun Same Moon (2017)
EAC | Flac(Image) + Cue + Log & MP3 CBR 320Kbps
Mascot Records, M75192 | RU | ~ 219 or 86 Mb | Scans(jpg) -> 5.70 Mb
Dirty Blues, Blues Rock, Indie Rock

Little Hurricane, big impact. The two-piece rock outfit from San Diego, California celebrates the release of their third album Same Sun Same Moon on April 14, a studio effort that continues the duo’s tradition of maintaining a full-band sound and shows lyrical and musical growth since their last release in 2014. Let’s take a step back: odds are good you’ve heard whisperings about Little Hurricane, if you haven’t already seen them in person (they’re on the road a lot: their gig history includes performances at Lollapalooza, Austin City Limits and four years of South by Southwest, with a hometown appearance at the second annual Kaaboo coming up this September). Last fall, Little Hurricane signed to Mascot Label Group, the label that’s home to Beth Hart, Eric Gales and Walter Trout, among others. Though recently tagged as the new notable husband-and-wife duo of the blues-inspired rock world, bandmates Anthony “Tone” Catalano and Celeste “C.C.” Spina resist the White Stripes comparisons and insist that their work is – and has always been – first, foremost and only about the music.

Still, new music tends to be rooted in inspiration, experience or a combination of the two. Same Sun Same Moon has a couple of starry-eyed tracks (including first single “OTL” and “Isn’t it Great”) that the duo acknowledged were influenced by the relationship they started years after forming the band as friendly strangers in 2010. Little Hurricane took time for this new collection, letting inspiration find them as they traveled through California from Alpine to Lake Tahoe with their home studio in tow. Though “OTL” doesn’t feature guitar at all, “Bad Business” is a riff-driven track that stands out as one of the album’s best, its rhythm and tone seeded in the “dirty blues” style that Tone and C.C. pursued during their early years together. “March of the Living” and “Mt. Senorita” are also strongly tied to the duo’s blues roots, with “March of the Living” serving as the album’s only lyric-free track.

Little Hurricane’s most popular song preceding this album has been “Sheep in Wolves Clothes,” a narrative-driven track from 2014’s Gold Fever that symbolized a new phase in the band’s lyrical development. Little Hurricane continue this progression on Same Sun Same Moon, stepping even further away from the repetitive lyrical traps they fell into on their first record – all while exploring new musical territory. Little Hurricane apply their blues and classic rock influences to music that is brave enough to explore sounds commonly heard in rock, pop and alternative music. Same Sun Same Moon is an interesting record with no simple label or category – and that’s a big reason for why it’s enjoyable to listen to.

by Meghan Roos, bluesrockreview.com

Little Hurricane – Same Sun Same Moon (2017):

Little Hurricane - Same Sun Same Moon (2017)

Tracklist:

01. Same Sun Same Moon 03:23
02. Bad Business 02:58
03. OTL 03:16
04. Isn’t It Great 02:54
05. Take It Slow 03:28
06. Lake Tahoe Eyes 03:14
07. March Of The Living 01:48
08. Mt. Senorita 03:04
09. For Life 03:45
10. You Remind Me 02:49
11. Slingshot 03:02
12. Moon’s Gone Cold 02:44

Converted to Image (CUETools 2.1.4)

EAC Log
Exact Audio Copy V1.1 from 23. June 2015

EAC extraction logfile from 1. June 2017, 23:53

Little Hurricane / Same Sun Same Moon

Used drive : TSSTcorpCDDVDW SH-224DB Adapter: 1 ID: 0

Read mode : Secure
Utilize accurate stream : Yes
Defeat audio cache : Yes
Make use of C2 pointers : No

Read offset correction : 6
Overread into Lead-In and Lead-Out : No
Fill up missing offset samples with silence : Yes
Delete leading and trailing silent blocks : No
Null samples used in CRC calculations : Yes
Used interface : Native Win32 interface for Win NT & 2000
Gap handling : Appended to previous track

Used output format : User Defined Encoder
Selected bitrate : 1024 kBit/s
Quality : High
Add ID3 tag : No
Command line compressor : C:Program Files (x86)Exact Audio Copywin64flac.exe
Additional command line options : -8 -V -T "ARTIST=%artist%" -T "TITLE=%title%" -T "ALBUM=%albumtitle%" -T "DATE=%year%" -T "TRACKNUMBER=%tracknr%" -T "GENRE=%genre%" -T "COMMENT=%comment%" %source% -o %dest%

TOC of the extracted CD

Track | Start | Length | Start sector | End sector
––––––––––––––––––––––––––––-
1 | 0:00.00 | 3:22.66 | 0 | 15215
2 | 3:22.66 | 2:58.35 | 15216 | 28600
3 | 6:21.26 | 3:15.39 | 28601 | 43264
4 | 9:36.65 | 2:53.70 | 43265 | 56309
5 | 12:30.60 | 3:27.43 | 56310 | 71877
6 | 15:58.28 | 3:13.49 | 71878 | 86401
7 | 19:12.02 | 1:48.13 | 86402 | 94514
8 | 21:00.15 | 3:03.58 | 94515 | 108297
9 | 24:03.73 | 3:45.14 | 108298 | 125186
10 | 27:49.12 | 2:48.64 | 125187 | 137850
11 | 30:38.01 | 3:01.51 | 137851 | 151476
12 | 33:39.52 | 2:44.27 | 151477 | 163803

Track 1

Filename D:Sket4erLittle Hurricane – Same Sun Same Moon (2017)1 Same Sun Same Moon.wav

Pre-gap length 0:00:02.00

Peak level 100.0 %
Extraction speed 1.9 X
Track quality 100.0 %
Test CRC F254C9A9
Copy CRC F254C9A9
Track not present in AccurateRip database
Copy OK

Track 2

Filename D:Sket4erLittle Hurricane – Same Sun Same Moon (2017)2 Bad Business.wav

Peak level 98.0 %
Extraction speed 2.0 X
Track quality 100.0 %
Test CRC DA8467BD
Copy CRC DA8467BD
Track not present in AccurateRip database
Copy OK

Track 3

Filename D:Sket4erLittle Hurricane – Same Sun Same Moon (2017)3 OTL.wav

Peak level 98.0 %
Extraction speed 1.8 X
Track quality 99.9 %
Test CRC 4B2DD301
Copy CRC 4B2DD301
Track not present in AccurateRip database
Copy OK

Track 4

Filename D:Sket4erLittle Hurricane – Same Sun Same Moon (2017)4 Isn’t It Great.wav

Peak level 100.0 %
Extraction speed 1.8 X
Track quality 99.9 %
Test CRC C589D088
Copy CRC C589D088
Track not present in AccurateRip database
Copy OK

Track 5

Filename D:Sket4erLittle Hurricane – Same Sun Same Moon (2017)5 Take It Slow.wav

Peak level 98.0 %
Extraction speed 2.4 X
Track quality 100.0 %
Test CRC 5F99C084
Copy CRC 5F99C084
Track not present in AccurateRip database
Copy OK

Track 6

Filename D:Sket4erLittle Hurricane – Same Sun Same Moon (2017)6 Lake Tahoe Eyes.wav

Peak level 100.0 %
Extraction speed 2.5 X
Track quality 100.0 %
Test CRC D8A59111
Copy CRC D8A59111
Track not present in AccurateRip database
Copy OK

Track 7

Filename D:Sket4erLittle Hurricane – Same Sun Same Moon (2017)7 March Of The Living.wav

Peak level 100.0 %
Extraction speed 2.2 X
Track quality 100.0 %
Test CRC CC18C25F
Copy CRC CC18C25F
Track not present in AccurateRip database
Copy OK

Track 8

Filename D:Sket4erLittle Hurricane – Same Sun Same Moon (2017)8 Mt. Señorita.wav

Peak level 100.0 %
Extraction speed 2.6 X
Track quality 100.0 %
Test CRC 63B70FD4
Copy CRC 63B70FD4
Track not present in AccurateRip database
Copy OK

Track 9

Filename D:Sket4erLittle Hurricane – Same Sun Same Moon (2017)9 For Life.wav

Peak level 100.0 %
Extraction speed 2.8 X
Track quality 100.0 %
Test CRC 747FEC08
Copy CRC 747FEC08
Track not present in AccurateRip database
Copy OK

Track 10

Filename D:Sket4erLittle Hurricane – Same Sun Same Moon (2017)10 You Remind Me.wav

Peak level 100.0 %
Extraction speed 2.7 X
Track quality 100.0 %
Test CRC 84F510A7
Copy CRC 84F510A7
Track not present in AccurateRip database
Copy OK

Track 11

Filename D:Sket4erLittle Hurricane – Same Sun Same Moon (2017)11 Slingshot.wav

Peak level 85.8 %
Extraction speed 2.9 X
Track quality 100.0 %
Test CRC 9EF8177C
Copy CRC 9EF8177C
Track not present in AccurateRip database
Copy OK

Track 12

Filename D:Sket4erLittle Hurricane – Same Sun Same Moon (2017)12 Moon’s Gone Cold.wav

Peak level 94.0 %
Extraction speed 2.1 X
Track quality 99.9 %
Test CRC 120F1328
Copy CRC 120F1328
Track not present in AccurateRip database
Copy OK

None of the tracks are present in the AccurateRip database

No errors occurred

End of status report

–– CUETools DB Plugin V2.1.6

[CTDB TOCID: piOCZZUcpPKQqAoTmBT5138sPoA-] found
Submit result: piOCZZUcpPKQqAoTmBT5138sPoA- has been confirmed
Track | CTDB Status
1 | (3/3) Accurately ripped
2 | (3/3) Accurately ripped
3 | (3/3) Accurately ripped
4 | (3/3) Accurately ripped
5 | (3/3) Accurately ripped
6 | (3/3) Accurately ripped
7 | (3/3) Accurately ripped
8 | (3/3) Accurately ripped
9 | (3/3) Accurately ripped
10 | (3/3) Accurately ripped
11 | (3/3) Accurately ripped
12 | (3/3) Accurately ripped

==== Log checksum 838A1523CC82F4173FCEF41C0ED3061816FB508C2694A06D2EA2989F99CA7A70 ====

DR Log
foobar2000 1.2.9 / Dynamic Range Meter 1.1.1
log date: 2017-07-16 23:45:33

––––––––––––––––––––––––––––––––––––––––
Analyzed: Little Hurricane / Same Sun Same Moon
––––––––––––––––––––––––––––––––––––––––

DR Peak RMS Duration Track
––––––––––––––––––––––––––––––––––––––––
DR8 0.00 dB -9.57 dB 3:23 01-Same Sun Same Moon
DR8 -0.17 dB -9.44 dB 2:58 02-Bad Business
DR7 -0.17 dB -8.51 dB 3:16 03-OTL
DR9 0.00 dB -9.90 dB 2:54 04-Isn’t It Great
DR8 -0.17 dB -9.15 dB 3:28 05-Take It Slow
DR8 0.00 dB -9.75 dB 3:14 06-Lake Tahoe Eyes
DR7 0.00 dB -8.70 dB 1:48 07-March Of The Living
DR6 0.00 dB -7.33 dB 3:04 08-Mt. Senorita
DR9 0.00 dB -10.18 dB 3:45 09-For Life
DR8 0.00 dB -10.25 dB 2:49 10-You Remind Me
DR7 -1.33 dB -9.60 dB 3:02 11-Slingshot
DR9 -0.53 dB -11.93 dB 2:44 12-Moon’s Gone Cold
––––––––––––––––––––––––––––––––––––––––

Number of tracks: 12
Official DR value: DR8

Samplerate: 44100 Hz
Channels: 2
Bits per sample: 16
Bitrate: 818 kbps
Codec: FLAC

CUETools Log
[CUETools log; Date: 16.07.2017 23:45:21; Version: 2.1.4]
[CTDB TOCID: piOCZZUcpPKQqAoTmBT5138sPoA-] found.
Track | CTDB Status
1 | (7/7) Accurately ripped
2 | (7/7) Accurately ripped
3 | (7/7) Accurately ripped
4 | (7/7) Accurately ripped
5 | (7/7) Accurately ripped
6 | (7/7) Accurately ripped
7 | (7/7) Accurately ripped
8 | (7/7) Accurately ripped
9 | (7/7) Accurately ripped
10 | (7/7) Accurately ripped
11 | (7/7) Accurately ripped
12 | (7/7) Accurately ripped
[AccurateRip ID: 001085b4-00996611-8c08880c] found.
Track [ CRC | V2 ] Status
01 [0bdc906a|2c91c661] (0+0/3) No match
02 [ab4abbe8|9fa0ac85] (0+0/3) No match
03 [2e27cc50|75b08663] (0+0/3) No match
04 [d186e196|3d1bc3dc] (0+0/3) No match
05 [3c4e4179|ac719c56] (0+0/3) No match
06 [48d9cb66|17bc561b] (0+0/3) No match
07 [484b3882|5ebe8f99] (0+0/3) No match
08 [3358e684|2fdd316a] (0+0/3) No match
09 [6834cd21|f95a8d60] (0+0/3) No match
10 [c9ff611e|267588a6] (0+0/3) No match
11 [4cc400d2|7dd1369a] (0+0/3) No match
12 [edfccb06|fcb2d710] (0+0/3) No match
Offsetted by 6:
01 [49db0a69] (0/3) No match (V2 was not tested)
02 [8bb74ac7] (0/3) No match (V2 was not tested)
03 [37f5c3da] (0/3) No match (V2 was not tested)
04 [e6f4007a] (0/3) No match (V2 was not tested)
05 [6a4a0056] (0/3) No match (V2 was not tested)
06 [8e6a9fb3] (0/3) No match (V2 was not tested)
07 [ff69c6c5] (0/3) No match (V2 was not tested)
08 [44627e52] (0/3) No match (V2 was not tested)
09 [00c9e65c] (0/3) No match (V2 was not tested)
10 [ad78dc1b] (0/3) No match (V2 was not tested)
11 [25646371] (0/3) No match (V2 was not tested)
12 [1b0680de] (0/3) No match (V2 was not tested)

Track Peak [ CRC32 ] [W/O NULL] [ LOG ]
– 100,0 [D99E631A] [1C88A2DD]
01 100,0 [F254C9A9] [F2817E7D] CRC32
02 98,0 [DA8467BD] [0120F59D] CRC32
03 98,0 [4B2DD301] [7E74EF0D] CRC32
04 100,0 [C589D088] [F8BD3F29] CRC32
05 98,0 [5F99C084] [D106042D] CRC32
06 100,0 [D8A59111] [58960C31] CRC32
07 100,0 [CC18C25F] [3FDD1F90] CRC32
08 100,0 [63B70FD4] [04363BD3] CRC32
09 100,0 [747FEC08] [6406B8A2] CRC32
10 100,0 [84F510A7] [07B8A255] CRC32
11 85,8 [9EF8177C] [411092C8] CRC32
12 94,0 [120F1328] [B7B74E86] CRC32

Little Hurricane - Same Sun Same Moon (2017)

All thanks go to Sket4er

Download Little Hurricane – Same Sun Same Moon (2017):

Little Hurricane – Same Sun Same Moon (2017) Download, Warez, DDL, Free, Full Album, Torrent, Legal.

Download