Little Cub – Still Life (2017)

Download
Little Cub - Still Life (2017)

Little Cub – Still Life
EAC Rip | FLAC (tracks)+cue, log, m3u, front cover | 41:39 min | 261 MB
Label: Domino Recording Co – WIGCD315P | Tracks: 11 | Rls.date: 2017
Indie Pop, Alternative

Still Life is the debut album by south London’s Little Cub, released spring 2017. Its eleven songs marry a wry, worldly and subversive self-effacing form of diarist lyricism with sumptuously evocative electronic production, announcing the arrival of a band at once deeply in tune with the greatest traditions of progressive, homespun British pop music and at odds with the increasingly vacuous pop culture they are born into. Little Cub is Dominic Gore, Duncan Tootill and Adrian Acolatse. Whilst now residing and writing in Peckham, their story begins in the banker-belt ennui of Dorking, Surrey, the sort of faceless suburban hinterland that J.G. Ballard was obsessed with. It was in this less than illustrious setting that Gore and Tootill first met by chance. The two hit it off over a shared love of James Murphy’s seminal DFA Records, early Aphex Twin and New Order and before long began meeting up to share ideas for original songs alongside Ady Acolatse, whom Gore had met on a night out in the blare and glare of Fabric nightclub the previous summer. What emerged from the bonding of the trio’s mutual ethos’ is the warm, dynamic, modular sound of Still Life, with elements of house, techno and ambient reflective of the group’s evolving taste coalescing with fruits of a shared jazz background and indie sensibility to provide the perfect landscape for Gore’s tight, almost hymn-like verses on the trials and tribulations of 21st century living.

TRACKLIST
1. Too Much Love (03:39)
2. My Nature (04:03)
3. Breathing Space (04:06)
4. Mulberry (03:18)
5. Death of a Football Manager (03:13)
6. Hypnotise (03:44)
7. Closing Time (04:01)
8. October (03:00)
9. Loveless (03:28)
10. Snow (05:05)
11. Television (04:02)

EAC Log
Exact Audio Copy V1.3 from 2. September 2016

EAC extraction logfile from 15. July 2017, 20:07

Little Cub / Still Life

Used drive : TSSTcorpDVD+-RW SH-216DB Adapter: 1 ID: 0

Read mode : Secure
Utilize accurate stream : Yes
Defeat audio cache : Yes
Make use of C2 pointers : No

Read offset correction : 6
Overread into Lead-In and Lead-Out : No
Fill up missing offset samples with silence : Yes
Delete leading and trailing silent blocks : No
Null samples used in CRC calculations : Yes
Used interface : Native Win32 interface for Win NT & 2000
Gap handling : Appended to previous track

Used output format : Internal WAV Routines
Sample format : 44.100 Hz; 16 Bit; Stereo

TOC of the extracted CD

Track | Start | Length | Start sector | End sector
––––––––––––––––––––––––––––-
1 | 0:00.00 | 3:39.60 | 0 | 16484
2 | 3:39.60 | 4:03.12 | 16485 | 34721
3 | 7:42.72 | 4:06.12 | 34722 | 53183
4 | 11:49.09 | 3:18.73 | 53184 | 68106
5 | 15:08.07 | 3:13.47 | 68107 | 82628
6 | 18:21.54 | 3:44.49 | 82629 | 99477
7 | 22:06.28 | 4:01.12 | 99478 | 117564
8 | 26:07.40 | 3:00.57 | 117565 | 131121
9 | 29:08.22 | 3:28.70 | 131122 | 146791
10 | 32:37.17 | 5:05.14 | 146792 | 169680
11 | 37:42.31 | 4:02.37 | 169681 | 187867

Track 1

Filename C:EAC RipsLittle Cub – 2017 – Still Life [FLAC] {Domino WIGCD315P}1 – Too Much Love.wav

Pre-gap length 0:00:02.00

Peak level 97.9 %
Extraction speed 4.3 X
Track quality 100.0 %
Test CRC D42607FA
Copy CRC D42607FA
Cannot be verified as accurate (confidence 1) [FB7D585D], AccurateRip returned [73D6A80E] (AR v2)
Copy OK

Track 2

Filename C:EAC RipsLittle Cub – 2017 – Still Life [FLAC] {Domino WIGCD315P}2 – My Nature.wav

Peak level 97.9 %
Extraction speed 4.8 X
Track quality 100.0 %
Test CRC 0E144DB8
Copy CRC 0E144DB8
Cannot be verified as accurate (confidence 1) [6CBFA8C1], AccurateRip returned [2CB9A948] (AR v2)
Copy OK

Track 3

Filename C:EAC RipsLittle Cub – 2017 – Still Life [FLAC] {Domino WIGCD315P}3 – Breathing Space.wav

Peak level 97.9 %
Extraction speed 5.2 X
Track quality 100.0 %
Test CRC 20C8FBF3
Copy CRC 20C8FBF3
Cannot be verified as accurate (confidence 1) [A38EAF59], AccurateRip returned [8FA663AF] (AR v2)
Copy OK

Track 4

Filename C:EAC RipsLittle Cub – 2017 – Still Life [FLAC] {Domino WIGCD315P}4 – Mulberry.wav

Peak level 97.9 %
Extraction speed 5.4 X
Track quality 100.0 %
Test CRC 47A38EF2
Copy CRC 47A38EF2
Cannot be verified as accurate (confidence 1) [B607D75D], AccurateRip returned [163A0976] (AR v2)
Copy OK

Track 5

Filename C:EAC RipsLittle Cub – 2017 – Still Life [FLAC] {Domino WIGCD315P}5 – Death of a Football Manager.wav

Peak level 97.9 %
Extraction speed 5.6 X
Track quality 100.0 %
Test CRC 7519CCCB
Copy CRC 7519CCCB
Cannot be verified as accurate (confidence 1) [73542A41], AccurateRip returned [020B1977] (AR v2)
Copy OK

Track 6

Filename C:EAC RipsLittle Cub – 2017 – Still Life [FLAC] {Domino WIGCD315P}6 – Hypnotise.wav

Peak level 97.9 %
Extraction speed 6.0 X
Track quality 100.0 %
Test CRC AE5B4BF1
Copy CRC AE5B4BF1
Cannot be verified as accurate (confidence 1) [CE445B34], AccurateRip returned [41C06D86] (AR v2)
Copy OK

Track 7

Filename C:EAC RipsLittle Cub – 2017 – Still Life [FLAC] {Domino WIGCD315P}7 – Closing Time.wav

Peak level 97.9 %
Extraction speed 5.0 X
Track quality 100.0 %
Test CRC 90E3D75F
Copy CRC 90E3D75F
Cannot be verified as accurate (confidence 1) [744336CA], AccurateRip returned [B190509C] (AR v2)
Copy OK

Track 8

Filename C:EAC RipsLittle Cub – 2017 – Still Life [FLAC] {Domino WIGCD315P}8 – October.wav

Peak level 97.9 %
Extraction speed 6.3 X
Track quality 100.0 %
Test CRC D03914C4
Copy CRC D03914C4
Cannot be verified as accurate (confidence 1) [5C43B685], AccurateRip returned [FCC99E7B] (AR v2)
Copy OK

Track 9

Filename C:EAC RipsLittle Cub – 2017 – Still Life [FLAC] {Domino WIGCD315P}9 – Loveless.wav

Peak level 97.9 %
Extraction speed 6.7 X
Track quality 100.0 %
Test CRC 3ED1C6AC
Copy CRC 3ED1C6AC
Cannot be verified as accurate (confidence 1) [81104213], AccurateRip returned [970AEF55] (AR v2)
Copy OK

Track 10

Filename C:EAC RipsLittle Cub – 2017 – Still Life [FLAC] {Domino WIGCD315P}10 – Snow.wav

Peak level 97.9 %
Extraction speed 7.4 X
Track quality 100.0 %
Test CRC B854A986
Copy CRC B854A986
Cannot be verified as accurate (confidence 1) [8AE4FA3D], AccurateRip returned [C27CB003] (AR v2)
Copy OK

Track 11

Filename C:EAC RipsLittle Cub – 2017 – Still Life [FLAC] {Domino WIGCD315P}11 – Television.wav

Peak level 97.9 %
Extraction speed 7.3 X
Track quality 100.0 %
Test CRC BC861E61
Copy CRC BC861E61
Cannot be verified as accurate (confidence 1) [886D45F9], AccurateRip returned [0B6EDC73] (AR v2)
Copy OK

No tracks could be verified as accurate
You may have a different pressing from the one(s) in the database

No errors occurred

End of status report

–– CUETools DB Plugin V2.1.6

[CTDB TOCID: XGDG2IAJhnFZK5qkoKiLUkU55wY-] found
Submit result: XGDG2IAJhnFZK5qkoKiLUkU55wY- has been confirmed
Track | CTDB Status
1 | (6/6) Accurately ripped
2 | (6/6) Accurately ripped
3 | (6/6) Accurately ripped
4 | (6/6) Accurately ripped
5 | (6/6) Accurately ripped
6 | (6/6) Accurately ripped
7 | (6/6) Accurately ripped
8 | (6/6) Accurately ripped
9 | (6/6) Accurately ripped
10 | (6/6) Accurately ripped
11 | (6/6) Accurately ripped

==== Log checksum E514A192BFD49F429419FE2ABFCE4B6973E7040EC59F9F88A3661D113BE4439D ====

Little Cub - Still Life (2017)
Thanks to the Original customer.

Little Cub – Still Life (2017) Download, Warez, DDL, Free, Full Album, Torrent, Legal.

Download