Liam Gallagher – As You Were (Japanese Edition) (2017)

Download
Liam Gallagher - As You Were (Japanese Edition) (2017)

Liam Gallagher – As You Were (Japanese Edition) (2017)
EAC Rip | FLAC (tracks+log+.cue) | 01:08:01 | 477 Mb
Alternative Rock, Indie Rock, Britpop | Label: Warner Music Japan

As You Were is the upcoming debut studio album by English singer and songwriter Liam Gallagher. The album was announced in June 2017 with the release of the single "Wall of Glass" and is scheduled for release on 6 October 2017 by Warner Bros. Records. Gallagher also revealed that he will launch his first solo tour of the United States and Canada to support the album’s release. The album’s title comes from the sign-off Gallagher typically uses for his Twitter posts.

Gallagher worked with producers Greg Kurstin and Dan Grech-Marguerat on the album, with Kurstin producing the tracks "Wall of Glass", "Paper Crown", "Come Back to Me", and "Doesn’t Have to Be That Way", and Grech-Marguerat producing the remainder of As You Were.

"As You Were" received generally positive reviews from critics at Metacritic, which assigns a normalized rating out of 100 to reviews from mainstream publications, the album received an average score of 79, based on 5 reviews.

Stephen Thomas Erlewine from AllMusic was highly positive about the record in his four-star review, saying "As You Were doesn’t sound retro even though it is, in essence, a throwback to a throwback – a re-articulation of Liam’s ’90s obsession with the ’60s. That production does Gallagher a favor but so does Kurstin’s presence as a co-songwriter, helping to rein in Liam’s wandering ear and sharpen his melodies. Ranging from the icy onslaught of "Wall of Glass" to the stark swirl of "Chinatown" this is his best record in nearly a decade, and they add up to an album that illustrates exactly who Liam Gallagher is as an artist. Now in his middle age, he’s a richer, nuanced singer than he was during Oasis’s heyday, yet he’s retained his charisma and, unlike his brother, he favors color and fire in his records, elements that not only enhance this fine collection of songs but make this the best post-Oasis album from either Gallagher to date."

Tracklist:
01. Wall Of Glass
02. Bold
03. Greedy Soul
04. Paper Crown
05. For What It’s Worth
06. When I’m In Need
07. You Better Run
08. I Get By
09. Chinatown
10. Come Back To Me
11. Universal Gleam
12. I’ve All I Need
13. Doesn’t Have To Be That Way
14. All My People / All Mankind
15. I Never Wanna Be Like You
16. For What It’s Worth (Live at Air Studios) [Japanese Bonus Track]
17. Greedy Soul (Live at Air Studios) [Japanese Bonus Track]
18. Paper Crown (Live at Air Studios) [Japanese Bonus Track]

EAC
Exact Audio Copy V1.3 from 2. September 2016

EAC extraction logfile from 10. October 2017, 21:49

Liam Gallagher / As You Were

Used drive : ATAPI iHAS124 F Adapter: 1 ID: 1

Read mode : Secure
Utilize accurate stream : Yes
Defeat audio cache : Yes
Make use of C2 pointers : No

Read offset correction : 6
Overread into Lead-In and Lead-Out : Yes
Fill up missing offset samples with silence : Yes
Delete leading and trailing silent blocks : No
Null samples used in CRC calculations : Yes
Used interface : Native Win32 interface for Win NT & 2000
Gap handling : Appended to previous track

Used output format : User Defined Encoder
Selected bitrate : 768 kBit/s
Quality : High
Add ID3 tag : No
Command line compressor : C:Program Files (x86)Flacflac.exe
Additional command line options : -8 -V -T "ARTIST=%artist%" -T "TITLE=%title%" -T "ALBUM=%albumtitle%" -T "DATE=%year%" -T "TRACKNUMBER=%tracknr%" -T "GENRE=%genre%" -T "PERFORMER=%albuminterpret%" -T "COMPOSER=%composer%" %haslyrics%–tag-from-file=LYRICS="%lyricsfile%"%haslyrics% -T "ALBUMARTIST=%albumartist%" -T "DISCNUMBER=%cdnumber%" -T "TOTALDISCS=%totalcds%" -T "TOTALTRACKS=%numtracks%" -T "COMMENT=%comment%" %source% -o %dest%

TOC of the extracted CD

Track | Start | Length | Start sector | End sector
––––––––––––––––––––––––––––-
1 | 0:00.00 | 3:43.41 | 0 | 16765
2 | 3:43.41 | 3:59.63 | 16766 | 34753
3 | 7:43.29 | 3:34.74 | 34754 | 50877
4 | 11:18.28 | 3:28.52 | 50878 | 66529
5 | 14:47.05 | 4:11.51 | 66530 | 85405
6 | 18:58.56 | 4:18.67 | 85406 | 104822
7 | 23:17.48 | 3:24.13 | 104823 | 120135
8 | 26:41.61 | 3:09.56 | 120136 | 134366
9 | 29:51.42 | 3:20.63 | 134367 | 149429
10 | 33:12.30 | 3:21.48 | 149430 | 164552
11 | 36:34.03 | 4:07.45 | 164553 | 183122
12 | 40:41.48 | 4:09.36 | 183123 | 201833
13 | 44:51.09 | 3:58.46 | 201834 | 219729
14 | 48:49.55 | 3:55.42 | 219730 | 237396
15 | 52:45.22 | 3:54.20 | 237397 | 254966
16 | 56:39.42 | 4:13.18 | 254967 | 273959
17 | 60:52.60 | 3:33.21 | 273960 | 289955
18 | 64:26.06 | 3:35.22 | 289956 | 306102

Track 1

Filename C:UsersschorDesktopLiam GallagherAs You Were1 – Wall Of Glass.wav

Pre-gap length 0:00:02.00

Peak level 96.5 %
Extraction speed 5.7 X
Track quality 100.0 %
Test CRC DA264512
Copy CRC DA264512
Track not present in AccurateRip database
Copy OK

Track 2

Filename C:UsersschorDesktopLiam GallagherAs You Were2 – Bold.wav

Peak level 96.5 %
Extraction speed 6.3 X
Track quality 100.0 %
Test CRC 4D05FB62
Copy CRC 4D05FB62
Track not present in AccurateRip database
Copy OK

Track 3

Filename C:UsersschorDesktopLiam GallagherAs You Were3 – Greedy Soul.wav

Peak level 96.4 %
Extraction speed 6.6 X
Track quality 100.0 %
Test CRC 98C915DA
Copy CRC 98C915DA
Track not present in AccurateRip database
Copy OK

Track 4

Filename C:UsersschorDesktopLiam GallagherAs You Were4 – Paper Crown.wav

Peak level 96.4 %
Extraction speed 7.0 X
Track quality 100.0 %
Test CRC A005384D
Copy CRC A005384D
Track not present in AccurateRip database
Copy OK

Track 5

Filename C:UsersschorDesktopLiam GallagherAs You Were5 – For What It’s Worth.wav

Peak level 96.5 %
Extraction speed 6.4 X
Track quality 99.9 %
Test CRC 4D5D32B7
Copy CRC 4D5D32B7
Track not present in AccurateRip database
Copy OK

Track 6

Filename C:UsersschorDesktopLiam GallagherAs You Were6 – When I’m In Need.wav

Peak level 96.5 %
Extraction speed 8.1 X
Track quality 100.0 %
Test CRC 1E2B7EB2
Copy CRC 1E2B7EB2
Track not present in AccurateRip database
Copy OK

Track 7

Filename C:UsersschorDesktopLiam GallagherAs You Were7 – You Better Run.wav

Peak level 96.5 %
Extraction speed 6.7 X
Track quality 99.9 %
Test CRC EB3C755A
Copy CRC EB3C755A
Track not present in AccurateRip database
Copy OK

Track 8

Filename C:UsersschorDesktopLiam GallagherAs You Were8 – I Get By.wav

Peak level 96.5 %
Extraction speed 8.4 X
Track quality 100.0 %
Test CRC 28DA1DEF
Copy CRC 28DA1DEF
Track not present in AccurateRip database
Copy OK

Track 9

Filename C:UsersschorDesktopLiam GallagherAs You Were9 – Chinatown.wav

Peak level 96.5 %
Extraction speed 7.0 X
Track quality 99.9 %
Test CRC 708AD489
Copy CRC 708AD489
Track not present in AccurateRip database
Copy OK

Track 10

Filename C:UsersschorDesktopLiam GallagherAs You Were10 – Come Back To Me.wav

Peak level 96.5 %
Extraction speed 9.0 X
Track quality 100.0 %
Test CRC DDA99CC9
Copy CRC DDA99CC9
Track not present in AccurateRip database
Copy OK

Track 11

Filename C:UsersschorDesktopLiam GallagherAs You Were11 – Universal Gleam.wav

Peak level 96.5 %
Extraction speed 9.6 X
Track quality 100.0 %
Test CRC D91FBFE4
Copy CRC D91FBFE4
Track not present in AccurateRip database
Copy OK

Track 12

Filename C:UsersschorDesktopLiam GallagherAs You Were12 – I’ve All I Need.wav

Peak level 96.5 %
Extraction speed 9.9 X
Track quality 100.0 %
Test CRC DE3BC443
Copy CRC DE3BC443
Track not present in AccurateRip database
Copy OK

Track 13

Filename C:UsersschorDesktopLiam GallagherAs You Were13 – Doesn’t Have To Be That Way.wav

Peak level 96.4 %
Extraction speed 10.2 X
Track quality 100.0 %
Test CRC 4CD9DBBD
Copy CRC 4CD9DBBD
Track not present in AccurateRip database
Copy OK

Track 14

Filename C:UsersschorDesktopLiam GallagherAs You Were14 – All My People – All Mankind.wav

Peak level 96.4 %
Extraction speed 10.5 X
Track quality 100.0 %
Test CRC 661C810D
Copy CRC 661C810D
Track not present in AccurateRip database
Copy OK

Track 15

Filename C:UsersschorDesktopLiam GallagherAs You Were15 – I Never Wanna Be Like You.wav

Peak level 96.4 %
Extraction speed 10.7 X
Track quality 100.0 %
Test CRC C39631C7
Copy CRC C39631C7
Track not present in AccurateRip database
Copy OK

Track 16

Filename C:UsersschorDesktopLiam GallagherAs You Were16 – For What It’s Worth (Live at Air Studios).wav

Pre-gap length 0:00:03.00

Peak level 96.5 %
Extraction speed 11.1 X
Track quality 100.0 %
Test CRC 1B923FAE
Copy CRC 1B923FAE
Track not present in AccurateRip database
Copy OK

Track 17

Filename C:UsersschorDesktopLiam GallagherAs You Were17 – Greedy Soul (Live at Air Studios).wav

Peak level 96.5 %
Extraction speed 11.1 X
Track quality 100.0 %
Test CRC A414CA8A
Copy CRC A414CA8A
Track not present in AccurateRip database
Copy OK

Track 18

Filename C:UsersschorDesktopLiam GallagherAs You Were18 – Paper Crown (Live at Air Studios).wav

Peak level 96.5 %
Extraction speed 12.8 X
Track quality 100.0 %
Test CRC BA887701
Copy CRC BA887701
Track not present in AccurateRip database
Copy OK

None of the tracks are present in the AccurateRip database

No errors occurred

End of status report

–– CUETools DB Plugin V2.1.6

[CTDB TOCID: tm_paDujdHDRNscqic.EWFCfHb0-] found
Submit result: tm_paDujdHDRNscqic.EWFCfHb0- has been confirmed
Track | CTDB Status
1 | (16/16) Accurately ripped
2 | (16/16) Accurately ripped
3 | (16/16) Accurately ripped
4 | (16/16) Accurately ripped
5 | (16/16) Accurately ripped
6 | (16/16) Accurately ripped
7 | (16/16) Accurately ripped
8 | (16/16) Accurately ripped
9 | (16/16) Accurately ripped
10 | (16/16) Accurately ripped
11 | (16/16) Accurately ripped
12 | (16/16) Accurately ripped
13 | (16/16) Accurately ripped
14 | (16/16) Accurately ripped
15 | (16/16) Accurately ripped
16 | (16/16) Accurately ripped
17 | (16/16) Accurately ripped
18 | (16/16) Accurately ripped

==== Log checksum 614046F8A3A28770E5A3A731344D96D14220C3AC5F362E7BC3199F8C8831EAC5 ====

Thanks to the Original ripper (Unknown)

Liam Gallagher – As You Were (Japanese Edition) (2017) Download, Warez, DDL, Free, Full Album, Torrent, Legal.

Download