Les McCann & Eddie Harris – Swiss Movement (Montreux 30th Anniversary Edition) (1969) {1996 Rhino}

Download
Les McCann & Eddie Harris - Swiss Movement (Montreux 30th Anniversary Edition) (1969) {1996 Rhino}

Les McCann & Eddie Harris – Swiss Movement (Montreux 30th Anniversary Edition) (1969) {1996 Rhino}
EAC Rip | FLAC with CUE and log | scans | 317 mb
MP3 CBR 320kbps | RAR | 136 mb
Genre: jazz

Swiss Movement is the 1969 album by Les McCann & Eddie Harris. When released, it became one of Atlantic’s most popular jazz albums in their discography. This edition is the Montreux 30th Anniversary Edition and features a bonus track not on the original album, courtesy of Rhino Records.

Les McCann & Eddie Harris - Swiss Movement (Montreux 30th Anniversary Edition) (1969) {1996 Rhino}

1. Compared To What
2. Cold Duck Time
3. Kathleen’s Theme
4. You Got In In Your Soulness
5. The Generation Gap
6. Kaftan (Bonus Track)

Les McCann-piano, vocal (track 1)
Eddie Harris-tenor sax
Benny Bailey-trumpet
Leroy Vinnegar-bass
Donald Dean-drums

Recorded live at the Montreux Jazz Festival, 21 June, 1969
Original recordings produced by Nesuhi Ertegun & Joel Dorn
Recording engineer: Pierre Grandjean
Reissue produced for release by Joel Dorn
Tape research: Joey Helguera
"Kaftan" remixed by Gene Paul
Assistant engineer: Walter Insalata
Remastered by Gene Paul

EAC Log
EAC extraction logfile from 27. June 2017, 0:29 for CD
Les McCann & Eddie Harris / Swiss Movement (Montreux 30th Anniversary Edition)

Used drive : TSSTcorpDVD+-RW TS-H653B Adapter: 2 ID: 0
Read mode : Secure with NO C2, accurate stream, disable cache
Read offset correction : 6
Overread into Lead-In and Lead-Out : No

Used output format : Internal WAV Routines
44.100 Hz; 16 Bit; Stereo

Other options :
Fill up missing offset samples with silence : Yes
Delete leading and trailing silent blocks : No
Native Win32 interface for Win NT & 2000

Track 1
Filename C:Documents and SettingscuntfistDesktopFLAC’s16Les McCann & Eddie Harris – Swiss Movement (Montreux 30th Anniversary Edition) (1969) [FLAC] {1996 Rhino}1 – Compared To What.wav

Pre-gap length 0:00:02.42

Peak level 97.7 %
Track quality 99.9 %
Test CRC 39262841
Copy CRC 39262841
Copy OK

Track 2
Filename C:Documents and SettingscuntfistDesktopFLAC’s16Les McCann & Eddie Harris – Swiss Movement (Montreux 30th Anniversary Edition) (1969) [FLAC] {1996 Rhino}2 – Cold Duck Time.wav

Pre-gap length 0:00:00.02

Peak level 91.9 %
Track quality 100.0 %
Test CRC B7D46032
Copy CRC B7D46032
Copy OK

Track 3
Filename C:Documents and SettingscuntfistDesktopFLAC’s16Les McCann & Eddie Harris – Swiss Movement (Montreux 30th Anniversary Edition) (1969) [FLAC] {1996 Rhino}3 – Kathleen’s Theme.wav

Pre-gap length 0:00:00.04

Peak level 91.1 %
Track quality 100.0 %
Test CRC 408E9CE8
Copy CRC 408E9CE8
Copy OK

Track 4
Filename C:Documents and SettingscuntfistDesktopFLAC’s16Les McCann & Eddie Harris – Swiss Movement (Montreux 30th Anniversary Edition) (1969) [FLAC] {1996 Rhino}4 – You Got It In Your Soulness.wav

Pre-gap length 0:00:02.70

Peak level 90.9 %
Track quality 100.0 %
Test CRC 2ACB7E97
Copy CRC 2ACB7E97
Copy OK

Track 5
Filename C:Documents and SettingscuntfistDesktopFLAC’s16Les McCann & Eddie Harris – Swiss Movement (Montreux 30th Anniversary Edition) (1969) [FLAC] {1996 Rhino}5 – The Generation Gap.wav

Pre-gap length 0:00:00.02

Peak level 97.7 %
Track quality 100.0 %
Test CRC 485DF8E9
Copy CRC 485DF8E9
Copy OK

Track 6
Filename C:Documents and SettingscuntfistDesktopFLAC’s16Les McCann & Eddie Harris – Swiss Movement (Montreux 30th Anniversary Edition) (1969) [FLAC] {1996 Rhino}6 – Kaftan (Bonus Track).wav

Pre-gap length 0:00:02.70

Peak level 96.3 %
Track quality 100.0 %
Test CRC 5450763E
Copy CRC 5450763E
Copy OK

No errors occured

End of status report

Les McCann & Eddie Harris - Swiss Movement (Montreux 30th Anniversary Edition) (1969) {1996 Rhino}

Les McCann & Eddie Harris – Swiss Movement (Montreux 30th Anniversary Edition) (1969) {1996 Rhino} Download, Warez, DDL, Free, Full Album, Torrent, Legal.

Download