Les Arts Florissants, William Christie – Rameau: Zoroastre (2002)

Download
Les Arts Florissants, William Christie - Rameau: Zoroastre (2002)

Les Arts Florissants, William Christie – Rameau: Zoroastre (2002)
EAC | FLAC (image+.cue, log) | Covers + Digital Booklet | 02:42:29 | 869 MB
Genre: Classical, Opera | Label: Erato | Catalog: 0927 43182-2

While Freemasonry’s secrecy has always aroused distrust, its enlightened principles and belief in virtue, liberty, fraternity, and equality have attracted large numbers of intellectuals and artists; one of its most famous adherents was Mozart. However, his opera The Magic Flute was not the first to be inspired by its teachings but was preceded in 1749 by Rameau’s Zoroastre. Its initial reception was so cool that Rameau and his librettist, Louis de Cahusac (a prominent Mason) undertook extensive revisions. The new version was produced–by coincidence or fate?–in 1756, the year of Mozart’s birth, and became a great success. The opera is based on the struggle between good and evil, light and darkness, enlightenment and ignorance, personified by Zoroastre, the Persian religious reformer, and Abramane, an ambitious sorcerer, servant of the Evil Spirit. The human element (strengthened in the second version) is represented by two princesses, rivals for the Bactrian throne and Zoroastre’s love; since one of them is in league with Abramane, the outcome is not in doubt. As in the Magic Flute, the music’s the thing, and it is great, creating character, atmosphere and contrast, painting almost visible images of disasters, ceremonies, and celebrations. The vocal writing is extremely difficult, florid, wide in tonal and expressive range; the tenor and soprano parts lie extremely high, the basses’ extremely low. Secco and accompanied recitatives melt into each other and into meltingly beautiful lyrical and stirringly dramatic arias and ensembles. But perhaps it is the choruses, underlining, supporting, and commenting on the action, and the orchestral sections, including many wonderful ballets, that are most impressive. Rameau uses the instruments to evoke light and shade, joy and sorrow, hope and despair, juxtaposing and combining winds and strings for utmost color and contrast, and the players and choristers do full justice to his demands. Among the soloists, the sopranos’ often unvibrated tone tends to get shrill; the men are all superb; Padmore stands out in the punishingly difficult role of Zoroastre. – Edith Eisler

Discogs

Les Arts Florissants, William Christie - Rameau: Zoroastre (2002)

Track List:

CD 1:
01. Ouverture
Acte I
Scene 1
02. Prelude
A L’heureux Abramane (Zopire)
03. Air Vif. En Rondeau:
Non, Je Ne Puis Assez Punir (Abramane)
04. Et Nos Dieux Et Le Peuple (Zopire)
Scene 2
05. Princesse, Avec Phaeres (Abramane)
06. Duo: Unissons Nos Fureurs (Erinice, Abramane)
Des Bactriens L’ingrare Entrainait (Abramane)
07. Dieux Rerriblcs (Erinice)
08. On Approche, Quittons Ces Lieux (Abramane)
Scene 3
09. Rassurez-Vous (Choeur)
10. A Tous Nos Rendres Soins (Cephie)
11. Reviens, C’est L’amour Qui T’appelle (Amelite)
12. Air Tendre En Rondeau
13. L’amour Pour Un Coeur Qui L’implore (Cephie)
14. Gavotte Tendre
15. Cher Zoroastre, Helas! (Amelite)
16. Air Gracieux: Non, Non, Une Flamme Volage (Amelite)
17. Les Rayons Du Soleil (Amelite, Cephie, Choeur)
Scene 4
18. C’est Vous, Chere Erinice? (Amelite)
Scene 5
Helas! Tout Fuit, Tout M’abandonne (Amelite)
Scene 6
Dieux, Protecteurs De L’innocence (Amelite)
19. Choeur Des Furies: Tremble, Tremble
20. Entracte: Ouverture
Acte II
Scene 1
21. A Mes Tristes Regards (Zoroastre)
Scene 2
22. Dans Cet Asile Favorable (Oromases)
23. Du Charme Des Plaisirs (Oromases)
24. Symphonie
Esprits Du Feu (Oromases)
Scene 3
Aux Accents De Ma Voix (Oromases)
25. Conjuration
Ou Suis-Je? (Zoroastre)
26. Sarabande
27. I Gavotte Gaye – 2 Gavotte
28. Zoroastre, Vole A La Gloire (Oromases, Choeur)
29. Secondez L’ardeur Qui Me Presse (Zoroastre)
Scene 4
30. Choeur De Demons:
En Vain L’innocence Crie
31. Juste Ciel! Quelle Barbarie ! (Amelite)
Scene 5
Barbare! (Zoroastre)
32. Air Vif: Je Confondrai Dans Ma Fureur (Erinice)
Scene 6
33. Helas! Je Bravais Son Courroux (Amelite)
34. Sejour Impenetrable (Zoroastre)
Scene 7
Le Ciel, Qu’ont Attendri Mes Pleurs (Zoroastre)
35. Eclatez, Transports D’allegresse (Cephie, Choeur)
36. Entree Des Peuples: Air Majestueux
37. Ah! Que L’absence Est Un Cruel Tourment! (Cephie)
38. I Menuet – 2 Menuet
39. Ariette: Non, Ce N’est Pas Toujours Pour Ravager (Amelite)
40. I Rigaudon – 2 Rigaudon
41. Cessez De Redouter Des Pretres Criminels (Zoroastre)
42. Qu’il Triomphe Des Autres Dieux (Amelite, Cephie, Choeur)
43. Entracte

EAC Log
Exact Audio Copy V1.2 from 12. August 2016

EAC extraction logfile from 22. October 2016, 11:40

William Christie / Zoroastre (Disc 1)

Used drive : MATSHITADVD-RAM UJ8G6 Adapter: 1 ID: 0

Read mode : Secure
Utilize accurate stream : Yes
Defeat audio cache : Yes
Make use of C2 pointers : No

Read offset correction : 103
Overread into Lead-In and Lead-Out : No
Fill up missing offset samples with silence : Yes
Delete leading and trailing silent blocks : No
Null samples used in CRC calculations : Yes
Used interface : Native Win32 interface for Win NT & 2000

Used output format : User Defined Encoder
Selected bitrate : 768 kBit/s
Quality : High
Add ID3 tag : No
Command line compressor : C:Program Files (x86)Exact Audio CopyFlacflac.exe
Additional command line options : -6 -V -T "ARTIST=%artist%" -T "TITLE=%title%" -T "ALBUM=%albumtitle%" -T "DATE=%year%" -T "TRACKNUMBER=%tracknr%" -T "GENRE=%genre%" -T "COMMENT=%comment%" -T "BAND=%albuminterpret%" -T "ALBUMARTIST=%albuminterpret%" -T "COMPOSER=%composer%" %haslyrics%–tag-from-file=LYRICS="%lyricsfile%"%haslyrics% -T "DISCNUMBER=%cdnumber%" -T "TOTALDISCS=%totalcds%" -T "TOTALTRACKS=%numtracks%" %hascover%–picture="%coverfile%"%hascover% %source% -o %dest%

TOC of the extracted CD

Track | Start | Length | Start sector | End sector
––––––––––––––––––––––––––––-
1 | 0:00.00 | 3:41.47 | 0 | 16621
2 | 3:41.47 | 0:51.18 | 16622 | 20464
3 | 4:32.65 | 1:08.58 | 20465 | 25622
4 | 5:41.48 | 2:42.57 | 25623 | 37829
5 | 8:24.30 | 2:29.44 | 37830 | 49048
6 | 10:53.74 | 1:33.27 | 49049 | 56050
7 | 12:27.26 | 0:54.09 | 56051 | 60109
8 | 13:21.35 | 0:49.00 | 60110 | 63784
9 | 14:10.35 | 1:16.12 | 63785 | 69496
10 | 15:26.47 | 0:47.65 | 69497 | 73086
11 | 16:14.37 | 1:54.13 | 73087 | 81649
12 | 18:08.50 | 1:28.28 | 81650 | 88277
13 | 19:37.03 | 0:58.09 | 88278 | 92636
14 | 20:35.12 | 1:11.00 | 92637 | 97961
15 | 21:46.12 | 0:47.13 | 97962 | 101499
16 | 22:33.25 | 1:32.16 | 101500 | 108415
17 | 24:05.41 | 0:39.66 | 108416 | 111406
18 | 24:45.32 | 1:49.31 | 111407 | 119612
19 | 26:34.63 | 0:37.44 | 119613 | 122431
20 | 27:12.32 | 2:18.48 | 122432 | 132829
21 | 29:31.05 | 3:29.67 | 132830 | 148571
22 | 33:00.72 | 0:48.73 | 148572 | 152244
23 | 33:49.70 | 1:58.23 | 152245 | 161117
24 | 35:48.18 | 1:12.40 | 161118 | 166557
25 | 37:00.58 | 1:01.27 | 166558 | 171159
26 | 38:02.10 | 1:58.66 | 171160 | 180075
27 | 40:01.01 | 1:04.43 | 180076 | 184918
28 | 41:05.44 | 1:22.67 | 184919 | 191135
29 | 42:28.36 | 1:44.12 | 191136 | 198947
30 | 44:12.48 | 0:47.35 | 198948 | 202507
31 | 45:00.08 | 2:06.56 | 202508 | 212013
32 | 47:06.64 | 0:39.05 | 212014 | 214943
33 | 47:45.69 | 3:28.62 | 214944 | 230605
34 | 51:14.56 | 1:14.05 | 230606 | 236160
35 | 52:28.61 | 0:38.57 | 236161 | 239067
36 | 53:07.43 | 1:16.23 | 239068 | 244790
37 | 54:23.66 | 1:56.51 | 244791 | 253541
38 | 56:20.42 | 1:46.56 | 253542 | 261547
39 | 58:07.23 | 2:54.66 | 261548 | 274663
40 | 61:02.14 | 2:27.44 | 274664 | 285732
41 | 63:29.58 | 0:46.01 | 285733 | 289183
42 | 64:15.59 | 2:38.74 | 289184 | 301107
43 | 66:54.58 | 1:11.47 | 301108 | 306479

Range status and errors

Selected range

Filename C:UsersRoyMusicRAMEAU – ZoroastreCD (FLAC + CUE)CD 1Jean-Philippe Rameau – Zoroastre (Disc 1).wav

Peak level 100.0 %
Extraction speed 4.5 X
Range quality 100.0 %
Copy CRC C552F89A
Copy OK

No errors occurred

AccurateRip summary

Track 1 accurately ripped (confidence 30) [0527DC7B] (AR v2)
Track 2 accurately ripped (confidence 30) [4DD50390] (AR v2)
Track 3 accurately ripped (confidence 30) [D91EF664] (AR v2)
Track 4 accurately ripped (confidence 30) [088E6BAF] (AR v2)
Track 5 accurately ripped (confidence 30) [1186500E] (AR v2)
Track 6 accurately ripped (confidence 30) [EE2E7334] (AR v2)
Track 7 accurately ripped (confidence 30) [9FAE24E5] (AR v2)
Track 8 accurately ripped (confidence 30) [E0216D76] (AR v2)
Track 9 accurately ripped (confidence 30) [3B571140] (AR v2)
Track 10 accurately ripped (confidence 30) [261570C9] (AR v2)
Track 11 accurately ripped (confidence 30) [3D883B5C] (AR v2)
Track 12 accurately ripped (confidence 30) [F1422182] (AR v2)
Track 13 accurately ripped (confidence 30) [27E09E90] (AR v2)
Track 14 accurately ripped (confidence 30) [3E10BC10] (AR v2)
Track 15 accurately ripped (confidence 30) [DA094756] (AR v2)
Track 16 accurately ripped (confidence 30) [6102CAA9] (AR v2)
Track 17 accurately ripped (confidence 30) [99DB41E0] (AR v2)
Track 18 accurately ripped (confidence 30) [53110361] (AR v2)
Track 19 accurately ripped (confidence 30) [AD3F8B00] (AR v2)
Track 20 accurately ripped (confidence 30) [4E76A76F] (AR v2)
Track 21 accurately ripped (confidence 30) [3A0B0E44] (AR v2)
Track 22 accurately ripped (confidence 30) [A0A6C9CE] (AR v2)
Track 23 accurately ripped (confidence 30) [90E3D059] (AR v2)
Track 24 accurately ripped (confidence 30) [5A3940A8] (AR v2)
Track 25 accurately ripped (confidence 30) [7182D1D2] (AR v2)
Track 26 accurately ripped (confidence 30) [129B1A86] (AR v2)
Track 27 accurately ripped (confidence 30) [74261729] (AR v2)
Track 28 accurately ripped (confidence 30) [CAC2F841] (AR v2)
Track 29 accurately ripped (confidence 30) [5E99F61F] (AR v2)
Track 30 accurately ripped (confidence 30) [F4F7AD0B] (AR v2)
Track 31 accurately ripped (confidence 29) [49D0AD8E] (AR v2)
Track 32 accurately ripped (confidence 29) [A8C0334A] (AR v2)
Track 33 accurately ripped (confidence 29) [C98812E7] (AR v2)
Track 34 accurately ripped (confidence 30) [C5BF7115] (AR v2)
Track 35 accurately ripped (confidence 30) [B44600A6] (AR v2)
Track 36 accurately ripped (confidence 30) [1A1EF1F4] (AR v2)
Track 37 accurately ripped (confidence 30) [35013882] (AR v2)
Track 38 accurately ripped (confidence 30) [4DC1E038] (AR v2)
Track 39 accurately ripped (confidence 30) [555C03A9] (AR v2)
Track 40 accurately ripped (confidence 30) [47595000] (AR v2)
Track 41 accurately ripped (confidence 30) [E1F41446] (AR v2)
Track 42 accurately ripped (confidence 30) [F27F18C0] (AR v2)
Track 43 accurately ripped (confidence 30) [551C4BEA] (AR v2)

All tracks accurately ripped

End of status report

–– CUETools DB Plugin V2.1.6

[CTDB TOCID: 9mJgVNg6l.RBwGWtzrNysRXiFZA-] found
Submit result: already submitted
Track | CTDB Status
1 | (30/30) Accurately ripped
2 | (30/30) Accurately ripped
3 | (30/30) Accurately ripped
4 | (30/30) Accurately ripped
5 | (30/30) Accurately ripped
6 | (30/30) Accurately ripped
7 | (30/30) Accurately ripped
8 | (30/30) Accurately ripped
9 | (30/30) Accurately ripped
10 | (30/30) Accurately ripped
11 | (30/30) Accurately ripped
12 | (30/30) Accurately ripped
13 | (30/30) Accurately ripped
14 | (30/30) Accurately ripped
15 | (30/30) Accurately ripped
16 | (30/30) Accurately ripped
17 | (30/30) Accurately ripped
18 | (30/30) Accurately ripped
19 | (30/30) Accurately ripped
20 | (30/30) Accurately ripped
21 | (30/30) Accurately ripped
22 | (30/30) Accurately ripped
23 | (30/30) Accurately ripped
24 | (30/30) Accurately ripped
25 | (30/30) Accurately ripped
26 | (30/30) Accurately ripped
27 | (30/30) Accurately ripped
28 | (30/30) Accurately ripped
29 | (30/30) Accurately ripped
30 | (30/30) Accurately ripped
31 | (30/30) Accurately ripped
32 | (29/30) Accurately ripped
33 | (30/30) Accurately ripped
34 | (30/30) Accurately ripped
35 | (30/30) Accurately ripped
36 | (30/30) Accurately ripped
37 | (30/30) Accurately ripped
38 | (30/30) Accurately ripped
39 | (30/30) Accurately ripped
40 | (30/30) Accurately ripped
41 | (30/30) Accurately ripped
42 | (30/30) Accurately ripped
43 | (30/30) Accurately ripped

CUETools Log
[CUETools log; Date: 08.02.2017 21:16:11; Version: 2.1.5]
[CTDB TOCID: 9mJgVNg6l.RBwGWtzrNysRXiFZA-] found.
Track | CTDB Status
1 | (32/32) Accurately ripped
2 | (32/32) Accurately ripped
3 | (32/32) Accurately ripped
4 | (32/32) Accurately ripped
5 | (32/32) Accurately ripped
6 | (32/32) Accurately ripped
7 | (32/32) Accurately ripped
8 | (32/32) Accurately ripped
9 | (32/32) Accurately ripped
10 | (32/32) Accurately ripped
11 | (32/32) Accurately ripped
12 | (32/32) Accurately ripped
13 | (32/32) Accurately ripped
14 | (32/32) Accurately ripped
15 | (32/32) Accurately ripped
16 | (32/32) Accurately ripped
17 | (32/32) Accurately ripped
18 | (32/32) Accurately ripped
19 | (32/32) Accurately ripped
20 | (32/32) Accurately ripped
21 | (32/32) Accurately ripped
22 | (32/32) Accurately ripped
23 | (32/32) Accurately ripped
24 | (32/32) Accurately ripped
25 | (32/32) Accurately ripped
26 | (32/32) Accurately ripped
27 | (32/32) Accurately ripped
28 | (32/32) Accurately ripped
29 | (32/32) Accurately ripped
30 | (32/32) Accurately ripped
31 | (32/32) Accurately ripped
32 | (31/32) Accurately ripped
33 | (32/32) Accurately ripped
34 | (32/32) Accurately ripped
35 | (32/32) Accurately ripped
36 | (32/32) Accurately ripped
37 | (32/32) Accurately ripped
38 | (32/32) Accurately ripped
39 | (32/32) Accurately ripped
40 | (32/32) Accurately ripped
41 | (32/32) Accurately ripped
42 | (32/32) Accurately ripped
43 | (32/32) Accurately ripped
[AccurateRip ID: 00654197-0bc34452-810ff62b] found.
Track [ CRC | V2 ] Status
01 [e68cb82e|0527dc7b] (21+30/51) Accurately ripped
02 [c1dd40f3|4dd50390] (21+30/51) Accurately ripped
03 [61b46546|d91ef664] (21+30/51) Accurately ripped
04 [2c7ee60f|088e6baf] (21+30/51) Accurately ripped
05 [0f0b214b|1186500e] (21+30/51) Accurately ripped
06 [d3c6b80d|ee2e7334] (21+30/51) Accurately ripped
07 [2b925a59|9fae24e5] (21+30/51) Accurately ripped
08 [ca8e92fb|e0216d76] (21+30/51) Accurately ripped
09 [855f63c3|3b571140] (21+30/51) Accurately ripped
10 [a9857433|261570c9] (21+30/51) Accurately ripped
11 [258e5f1f|3d883b5c] (21+30/51) Accurately ripped
12 [e0a54863|f1422182] (21+30/51) Accurately ripped
13 [d31d38c6|27e09e90] (21+30/51) Accurately ripped
14 [5a00ef7e|3e10bc10] (21+30/51) Accurately ripped
15 [32d36775|da094756] (21+30/51) Accurately ripped
16 [3af6d3a5|6102caa9] (21+30/51) Accurately ripped
17 [6a422b5f|99db41e0] (21+30/51) Accurately ripped
18 [972a47d5|53110361] (21+30/51) Accurately ripped
19 [6d88bbcd|ad3f8b00] (21+30/51) Accurately ripped
20 [0993ad9e|4e76a76f] (21+30/51) Accurately ripped
21 [a689aad0|3a0b0e44] (21+30/51) Accurately ripped
22 [80199deb|a0a6c9ce] (21+30/51) Accurately ripped
23 [aeb757e1|90e3d059] (21+30/51) Accurately ripped
24 [ef3b5f41|5a3940a8] (21+30/51) Accurately ripped
25 [3dd9888b|7182d1d2] (21+30/51) Accurately ripped
26 [57723581|129b1a86] (21+30/51) Accurately ripped
27 [9f266186|74261729] (21+30/51) Accurately ripped
28 [b2d8674e|cac2f841] (21+30/51) Accurately ripped
29 [73ddf28e|5e99f61f] (21+30/51) Accurately ripped
30 [fda368e7|f4f7ad0b] (21+30/51) Accurately ripped
31 [6716e3dd|49d0ad8e] (21+29/50) Accurately ripped
32 [f33bc2f8|a8c0334a] (21+29/50) Accurately ripped
33 [14d81b30|c98812e7] (21+29/50) Accurately ripped
34 [dd4d9b38|c5bf7115] (21+30/51) Accurately ripped
35 [a88894a7|b44600a6] (21+30/51) Accurately ripped
36 [1cdc9e6f|1a1ef1f4] (21+30/51) Accurately ripped
37 [378e9d61|35013882] (21+30/51) Accurately ripped
38 [65cf858e|4dc1e038] (21+30/51) Accurately ripped
39 [6791d4e9|555c03a9] (21+30/51) Accurately ripped
40 [c5f6cb69|47595000] (21+30/51) Accurately ripped
41 [08588fa2|e1f41446] (21+30/51) Accurately ripped
42 [54e1e4c4|f27f18c0] (21+30/51) Accurately ripped
43 [1cc300ad|551c4bea] (21+30/51) Accurately ripped

Track Peak [ CRC32 ] [W/O NULL] [ LOG ]
– 100,0 [C552F89A] [25D05929] CRC32
01 73,9 [46149C92] [A48DB4B9]
02 48,9 [64F3B7BC] [4E1D3BF3]
03 68,4 [607944D1] [B9F02179]
04 79,6 [40437428] [FB92E43F]
05 55,4 [476426C0] [2CD4FB1D]
06 90,1 [E945EFE3] [36F55884]
07 75,3 [C55F62DD] [6B14DD06]
08 58,1 [ABA4A789] [A86E3C6D]
09 51,1 [58753ED9] [687A5E0C]
10 47,1 [447E1A4A] [4B95233B]
11 75,5 [6CE08F2E] [A7204D43]
12 22,2 [F9A50965] [3099F1F1]
13 40,2 [59B489A6] [BB8156E1]
14 34,6 [5FFD8841] [395A0EA2]
15 44,9 [A4621B2C] [68D76192]
16 50,1 [D588636E] [6B417701]
17 100,0 [DFA23D09] [24841F34]
18 72,3 [45A39126] [59F3B6DB]
19 97,1 [518103F7] [BACBEB71]
20 60,5 [ABB69AA3] [ED30ECF9]
21 42,2 [31EB0CEC] [45AE59B6]
22 58,2 [F2A2C3AE] [3323F91B]
23 64,9 [34CB8840] [12C081A2]
24 46,0 [0C6A336B] [53F2CE41]
25 26,4 [6B66FB39] [97030BBB]
26 25,1 [5B6DEE8B] [A4388847]
27 46,5 [5148564C] [482F1EC8]
28 98,9 [E84A7322] [1EDDD225]
29 56,6 [750805E1] [DAD1DCA0]
30 94,2 [B07D4412] [F5CFA717]
31 100,0 [E28DF139] [DFA473EF]
32 80,0 [E25CB57E] [1C49CDB3]
33 66,1 [4F578AC2] [A1EBBD57]
34 57,2 [46506E5C] [03FD0334]
35 100,0 [06439499] [7739A553]
36 47,9 [537B1935] [01580852]
37 70,2 [3353B1E8] [425A1501]
38 40,4 [30A9876F] [EE6FF6D9]
39 96,7 [E184B5AE] [151DACB2]
40 42,5 [9BB7711C] [57005E4F]
41 41,3 [D00C8324] [BE821C54]
42 97,7 [FBE2C1EF] [D43F1A8E]
43 53,0 [E0E67CF4] [B5C4ABD4]

CD 2:
Acte III
Scene 1
01. Ritournelle
Arretez, Moderez Cette Fureur Extreme (Abramane)
02. Un Coeur Fier Qui Brise Sa Chaine (Abramane)
Scene 2
03. Osons Achever De Grands Crimes (Abramane)
Scene 3
04. Sommeil, Fuis De Ce Sejour (Zoroastre)
Scene 4
L’aurore Vermeille (Amelite)
Duo: Pour La Fete La Plus Belle (Amelite, Zoroastre)
Air: De Notre Flamme Mutuelle (Zoroastre)
Scene 5
05. Sommeil, Fuis De Ce Sejour (Choeur, Zoroastre Amelite)
06. Entree De Peuples Differents
07. Mille Rayons Brillants (Zoroastre)
Duo: Tout Se Ranime (Zoroastre, Amelite)
O Lumiere Vive Et Pure (Choeur, Zoroastre)
08. Loure
09. Ariette: Accourez, Jeunesse Brillante (Zoroastre)
Scene 6
10. Entree Des Montagnards
11. Arietta: Sur Nos Coeurs Epuise Tes Armes (Amelite)
12. Hatons Notre Bonheur (Zoroastre)
13. Duo: Je Vous Jure (Zoroastre, Amelite)
Scene 7
Dieux, Armez-Vous (Abramane)
Scene 8
Amelite! File Expire, O Cliel! (Zoroastre)
Nous Perissons (Choeur)
Acte IV
14. Prelude
Scene 1
Cruels Tyrans (Abramane)
Scene 2
15. Votre Ennemi Triomphe (Zopire)
Scene 3
Du Jour Le Plus Serein (Narbanor)
Scene 4
16. C’en Est Donc Fait, Perfide (Erinice)
Duo: О Dieux! Quelle Douleur Mortelle! (Erinice, Abramane)
Scene 5
Qu’une Double Porte D’airain (Abramane)
17. Supreme Auteur Des Maux (Abramane)
On Attaque Ta Gloire (Narbanor, Zopire, Choeur)
18. Epuisons Le Flanc (Abramane)
19. Princesse, Tout M’annonce (Abramane)
20. Duo: Ministres Redoutes (Abramane, Erinice)
Scene 6
21. A Ta Voix Nous Quittons Sans Peine (Choeur Des Demons)
22. Les Biens Que Notre Main Dispense (La Vengeance)
23. Air Grave
24. Vengez-Vous, Cessez De Souffrir (La Vengeance)
25. Portons Les Coups Les Plus Terribles (Erinice)
26. Va, Cours, J’arme Les Mains (La Vengeance)
27. Air Vif
28. La Flamme Le Consume (La Vengeance)
Quel Bonheur (Choeur)
29. Air Tres Vif
30. Ah! Nos Fureurs Ne Sont Point Vaines (La Vengeance)
Scene 7
Cours Aux Armes (Voix Souterraine)
Scene 8
31. Courez Aux Armes (Erinice, La Vengeance, Abramane, Zopire, Narbanor, Furies, Pretres, Demons)

EAC Log
Exact Audio Copy V1.2 from 12. August 2016

EAC extraction logfile from 22. October 2016, 13:29

William Christie / Zoroastre (Disc 2)

Used drive : MATSHITADVD-RAM UJ8G6 Adapter: 1 ID: 0

Read mode : Secure
Utilize accurate stream : Yes
Defeat audio cache : Yes
Make use of C2 pointers : No

Read offset correction : 103
Overread into Lead-In and Lead-Out : No
Fill up missing offset samples with silence : Yes
Delete leading and trailing silent blocks : No
Null samples used in CRC calculations : Yes
Used interface : Native Win32 interface for Win NT & 2000

Used output format : User Defined Encoder
Selected bitrate : 768 kBit/s
Quality : High
Add ID3 tag : No
Command line compressor : C:Program Files (x86)Exact Audio CopyFlacflac.exe
Additional command line options : -6 -V -T "ARTIST=%artist%" -T "TITLE=%title%" -T "ALBUM=%albumtitle%" -T "DATE=%year%" -T "TRACKNUMBER=%tracknr%" -T "GENRE=%genre%" -T "COMMENT=%comment%" -T "BAND=%albuminterpret%" -T "ALBUMARTIST=%albuminterpret%" -T "COMPOSER=%composer%" %haslyrics%–tag-from-file=LYRICS="%lyricsfile%"%haslyrics% -T "DISCNUMBER=%cdnumber%" -T "TOTALDISCS=%totalcds%" -T "TOTALTRACKS=%numtracks%" %hascover%–picture="%coverfile%"%hascover% %source% -o %dest%

TOC of the extracted CD

Track | Start | Length | Start sector | End sector
––––––––––––––––––––––––––––-
1 | 0:00.00 | 3:24.24 | 0 | 15323
2 | 3:24.24 | 0:57.69 | 15324 | 19667
3 | 4:22.18 | 2:49.55 | 19668 | 32397
4 | 7:11.73 | 3:36.48 | 32398 | 48645
5 | 10:48.46 | 1:03.54 | 48646 | 53424
6 | 11:52.25 | 1:31.20 | 53425 | 60269
7 | 13:23.45 | 3:49.65 | 60270 | 77509
8 | 17:13.35 | 1:38.19 | 77510 | 84878
9 | 18:51.54 | 2:06.05 | 84879 | 94333
10 | 20:57.59 | 1:19.34 | 94334 | 100292
11 | 22:17.18 | 3:09.27 | 100293 | 114494
12 | 25:26.45 | 1:05.33 | 114495 | 119402
13 | 26:32.03 | 4:14.39 | 119403 | 138491
14 | 30:46.42 | 2:28.10 | 138492 | 149601
15 | 33:14.52 | 1:03.42 | 149602 | 154368
16 | 34:18.19 | 3:25.08 | 154369 | 169751
17 | 37:43.27 | 3:04.38 | 169752 | 183589
18 | 40:47.65 | 0:19.55 | 183590 | 185069
19 | 41:07.45 | 0:29.42 | 185070 | 187286
20 | 41:37.12 | 1:36.73 | 187287 | 194559
21 | 43:14.10 | 0:19.00 | 194560 | 195984
22 | 43:33.10 | 0:35.69 | 195985 | 198678
23 | 44:09.04 | 1:19.43 | 198679 | 204646
24 | 45:28.47 | 1:17.19 | 204647 | 210440
25 | 46:45.66 | 0:41.08 | 210441 | 213523
26 | 47:26.74 | 1:58.10 | 213524 | 222383
27 | 49:25.09 | 0:57.33 | 222384 | 226691
28 | 50:22.42 | 1:34.64 | 226692 | 233805
29 | 51:57.31 | 1:10.72 | 233806 | 239127
30 | 53:08.28 | 1:17.44 | 239128 | 244946
31 | 54:25.72 | 1:23.49 | 244947 | 251220

Range status and errors

Selected range

Filename C:UsersRoyMusicRAMEAU – ZoroastreCD (FLAC + CUE)CD 2Jean-Philippe Rameau – Zoroastre (Disc 2).wav

Peak level 100.0 %
Extraction speed 4.2 X
Range quality 100.0 %
Copy CRC 04DCC143
Copy OK

No errors occurred

AccurateRip summary

Track 1 accurately ripped (confidence 29) [C06A1FFE] (AR v2)
Track 2 accurately ripped (confidence 29) [563388CC] (AR v2)
Track 3 accurately ripped (confidence 29) [23672D72] (AR v2)
Track 4 accurately ripped (confidence 29) [63DB121D] (AR v2)
Track 5 accurately ripped (confidence 29) [E6A221F8] (AR v2)
Track 6 accurately ripped (confidence 29) [BECCDE2C] (AR v2)
Track 7 accurately ripped (confidence 29) [1E275465] (AR v2)
Track 8 accurately ripped (confidence 29) [6B4D7AC8] (AR v2)
Track 9 accurately ripped (confidence 29) [36AE6A6F] (AR v2)
Track 10 accurately ripped (confidence 29) [D69F6EBB] (AR v2)
Track 11 accurately ripped (confidence 29) [A595971F] (AR v2)
Track 12 accurately ripped (confidence 29) [B21CEC6A] (AR v2)
Track 13 accurately ripped (confidence 29) [76FC9CEA] (AR v2)
Track 14 accurately ripped (confidence 29) [E3EF6679] (AR v2)
Track 15 accurately ripped (confidence 29) [0C77AEB6] (AR v2)
Track 16 accurately ripped (confidence 29) [BB29E5AB] (AR v2)
Track 17 accurately ripped (confidence 29) [0CF9F7A9] (AR v2)
Track 18 accurately ripped (confidence 29) [6F07AE1D] (AR v2)
Track 19 accurately ripped (confidence 29) [ABC36A8D] (AR v2)
Track 20 accurately ripped (confidence 29) [B6374D15] (AR v2)
Track 21 accurately ripped (confidence 29) [651FDEF9] (AR v2)
Track 22 accurately ripped (confidence 29) [786BA2D8] (AR v2)
Track 23 accurately ripped (confidence 29) [1A4107EE] (AR v2)
Track 24 accurately ripped (confidence 29) [33B5D488] (AR v2)
Track 25 accurately ripped (confidence 29) [6CCC0160] (AR v2)
Track 26 accurately ripped (confidence 29) [C6552214] (AR v2)
Track 27 accurately ripped (confidence 29) [DA3E0C3A] (AR v2)
Track 28 accurately ripped (confidence 29) [5B00C910] (AR v2)
Track 29 accurately ripped (confidence 29) [C8113BB3] (AR v2)
Track 30 accurately ripped (confidence 29) [8DDA5E9B] (AR v2)
Track 31 accurately ripped (confidence 29) [4A06BAB7] (AR v2)

All tracks accurately ripped

End of status report

–– CUETools DB Plugin V2.1.6

[CTDB TOCID: ZuQZDfGEv0ZiySB7ILaoGwGcB_M-] found
Submit result: already submitted
Track | CTDB Status
1 | (29/29) Accurately ripped
2 | (29/29) Accurately ripped
3 | (29/29) Accurately ripped
4 | (29/29) Accurately ripped
5 | (29/29) Accurately ripped
6 | (29/29) Accurately ripped
7 | (29/29) Accurately ripped
8 | (29/29) Accurately ripped
9 | (29/29) Accurately ripped
10 | (29/29) Accurately ripped
11 | (29/29) Accurately ripped
12 | (29/29) Accurately ripped
13 | (29/29) Accurately ripped
14 | (29/29) Accurately ripped
15 | (29/29) Accurately ripped
16 | (29/29) Accurately ripped
17 | (29/29) Accurately ripped
18 | (29/29) Accurately ripped
19 | (29/29) Accurately ripped
20 | (29/29) Accurately ripped
21 | (29/29) Accurately ripped
22 | (29/29) Accurately ripped
23 | (29/29) Accurately ripped
24 | (29/29) Accurately ripped
25 | (29/29) Accurately ripped
26 | (29/29) Accurately ripped
27 | (29/29) Accurately ripped
28 | (29/29) Accurately ripped
29 | (29/29) Accurately ripped
30 | (29/29) Accurately ripped
31 | (28/29) Accurately ripped

CUETools Log
[CUETools log; Date: 08.02.2017 21:16:42; Version: 2.1.5]
[CTDB TOCID: ZuQZDfGEv0ZiySB7ILaoGwGcB_M-] found.
Track | CTDB Status
1 | (31/31) Accurately ripped
2 | (31/31) Accurately ripped
3 | (31/31) Accurately ripped
4 | (31/31) Accurately ripped
5 | (31/31) Accurately ripped
6 | (31/31) Accurately ripped
7 | (31/31) Accurately ripped
8 | (31/31) Accurately ripped
9 | (31/31) Accurately ripped
10 | (31/31) Accurately ripped
11 | (31/31) Accurately ripped
12 | (31/31) Accurately ripped
13 | (31/31) Accurately ripped
14 | (31/31) Accurately ripped
15 | (31/31) Accurately ripped
16 | (31/31) Accurately ripped
17 | (31/31) Accurately ripped
18 | (31/31) Accurately ripped
19 | (31/31) Accurately ripped
20 | (31/31) Accurately ripped
21 | (31/31) Accurately ripped
22 | (31/31) Accurately ripped
23 | (31/31) Accurately ripped
24 | (31/31) Accurately ripped
25 | (31/31) Accurately ripped
26 | (31/31) Accurately ripped
27 | (31/31) Accurately ripped
28 | (31/31) Accurately ripped
29 | (31/31) Accurately ripped
30 | (31/31) Accurately ripped
31 | (30/31) Accurately ripped
[AccurateRip ID: 004691b5-05dbe2eb-d20d151f] found.
Track [ CRC | V2 ] Status
01 [fb8ff927|c06a1ffe] (20+29/49) Accurately ripped
02 [e4d36877|563388cc] (20+29/49) Accurately ripped
03 [b9267042|23672d72] (20+29/49) Accurately ripped
04 [986cae48|63db121d] (20+29/49) Accurately ripped
05 [fe987957|e6a221f8] (20+29/49) Accurately ripped
06 [dc2ce3ae|beccde2c] (19+29/48) Accurately ripped
07 [200d04f8|1e275465] (20+29/49) Accurately ripped
08 [91e00118|6b4d7ac8] (20+29/49) Accurately ripped
09 [24f53b39|36ae6a6f] (20+29/49) Accurately ripped
10 [8c791a42|d69f6ebb] (20+29/49) Accurately ripped
11 [abf4163b|a595971f] (20+29/49) Accurately ripped
12 [444690d3|b21cec6a] (20+29/49) Accurately ripped
13 [b2ce9443|76fc9cea] (20+29/49) Accurately ripped
14 [c1589337|e3ef6679] (20+29/49) Accurately ripped
15 [c95cc692|0c77aeb6] (20+29/49) Accurately ripped
16 [3d0d2818|bb29e5ab] (20+29/49) Accurately ripped
17 [bc2cd2e4|0cf9f7a9] (20+29/49) Accurately ripped
18 [1696f177|6f07ae1d] (20+29/49) Accurately ripped
19 [e3037730|abc36a8d] (20+29/49) Accurately ripped
20 [858c675b|b6374d15] (20+29/49) Accurately ripped
21 [58391c00|651fdef9] (20+29/49) Accurately ripped
22 [cb2217d7|786ba2d8] (20+29/49) Accurately ripped
23 [ed70245d|1a4107ee] (20+29/49) Accurately ripped
24 [a1281559|33b5d488] (20+29/49) Accurately ripped
25 [9aa8a3d1|6ccc0160] (20+29/49) Accurately ripped
26 [1aad57f6|c6552214] (20+29/49) Accurately ripped
27 [985221b0|da3e0c3a] (20+29/49) Accurately ripped
28 [e6fe64c8|5b00c910] (20+29/49) Accurately ripped
29 [c5ab8655|c8113bb3] (20+29/49) Accurately ripped
30 [4004c2c4|8dda5e9b] (20+29/49) Accurately ripped
31 [cc5dd247|4a06bab7] (20+29/49) Accurately ripped

Track Peak [ CRC32 ] [W/O NULL] [ LOG ]
– 100,0 [04DCC143] [5A59FA13] CRC32
01 91,4 [971B2629] [CB305057]
02 45,0 [3A974FB4] [FB3516B6]
03 70,7 [8B0EE031] [6C7B0622]
04 79,5 [8C384EE1] [90F94EBE]
05 95,3 [D586323C] [77119028]
06 41,3 [6031235F] [F0729B89]
07 50,6 [62B4B3DE] [4240078F]
08 39,9 [343A1138] [19E953F1]
09 54,8 [F7E23CEC] [350759FE]
10 42,8 [FC4473B3] [59820206]
11 100,0 [03E26DA2] [504DFDC5]
12 52,7 [12AC7C75] [1144E793]
13 100,0 [88A2341B] [4970C78B]
14 70,9 [905F7A3D] [EF5FC0F7]
15 64,7 [6CD4889B] [5BA67BC4]
16 100,0 [7AA609E0] [C63FB9CD]
17 100,0 [08096CC8] [1A5BB629]
18 48,2 [AB50B9FD] [825C6927]
19 25,3 [7FD01E35] [74E82F12]
20 89,9 [E2264D86] [CFAF98E5]
21 87,7 [AD2B4EA3] [6AAE1D90]
22 92,7 [DB07EF5F] [7D7FE319]
23 55,2 [3F78F521] [90D03B49]
24 66,6 [B5447A2C] [246DC757]
25 65,8 [A24B5DC0] [80D11E81]
26 93,0 [E1725AFA] [4E9B7A65]
27 48,6 [44F5A89D] [016F4B14]
28 91,6 [5E079FBF] [8906171D]
29 41,3 [3D706FBC] [795239E9]
30 77,6 [2D7358DF] [7C2C7F83]
31 92,2 [3EE1ED78] [2AB1FED7]

CD 3:
Acte V
Scene 1
01. Prelude
Quel Tourment! (Erinice)
02. Il Approche (Erinice)
Scene 2
C’est Erinice! (Zoroastre)
Scene 3
03. Elle Court D’abime En Abime (Zoroastre)
Scene 4
Jour Funeste! Sort Inflexible! (Cephie, Chorur)
04. Que La Fiere Erinice (Choeur De Pretres Armes)
Scene 5
Que Tout Cede, Que Tout Flechisse (Erinice, Abramane)
Scene 6
05. Par Un Dernier Revers (Oromases)
Scene 7
06. Ballet: Air Majestueux
07. Duo: Que Ces Noeuds Sont Charmants! (Zoroastre)
Scene 8
08. Ariette Gracieuse: L’Amour Vole (Amelite)
09. I Gavotte – 2 Gavotte
Supplements / Appendix / Anhang
10. Air En Rondeau (V, 7)
11. Entree Des Bergers (V, 8)
12. Air Un Peu Gai Et Biеn Pique (II, 3)
13. Air Leger (I, 3)
14. I Gavotte En Rondeau – 2 Gavotte (I, 3)
15. Cigue Vive (III, 6)
16. Air Grave (IV, 5)
17. Tambourin En Rondeau (III, 6)
Acte V, Fin (1749)
18. Ariette: Vole, Lance De Nouveaux Feux (Amelite)
Recit Et Choeur: Vole, Amour (Amelite, Zoroastre, Choeur)

EAC Log
Exact Audio Copy V1.2 from 12. August 2016

EAC extraction logfile from 22. October 2016, 15:50

William Christie / Zoroastre (Disc 3)

Used drive : MATSHITADVD-RAM UJ8G6 Adapter: 1 ID: 0

Read mode : Secure
Utilize accurate stream : Yes
Defeat audio cache : Yes
Make use of C2 pointers : No

Read offset correction : 103
Overread into Lead-In and Lead-Out : No
Fill up missing offset samples with silence : Yes
Delete leading and trailing silent blocks : No
Null samples used in CRC calculations : Yes
Used interface : Native Win32 interface for Win NT & 2000

Used output format : User Defined Encoder
Selected bitrate : 768 kBit/s
Quality : High
Add ID3 tag : No
Command line compressor : C:Program Files (x86)Exact Audio CopyFlacflac.exe
Additional command line options : -6 -V -T "ARTIST=%artist%" -T "TITLE=%title%" -T "ALBUM=%albumtitle%" -T "DATE=%year%" -T "TRACKNUMBER=%tracknr%" -T "GENRE=%genre%" -T "COMMENT=%comment%" -T "BAND=%albuminterpret%" -T "ALBUMARTIST=%albuminterpret%" -T "COMPOSER=%composer%" %haslyrics%–tag-from-file=LYRICS="%lyricsfile%"%haslyrics% -T "DISCNUMBER=%cdnumber%" -T "TOTALDISCS=%totalcds%" -T "TOTALTRACKS=%numtracks%" %hascover%–picture="%coverfile%"%hascover% %source% -o %dest%

TOC of the extracted CD

Track | Start | Length | Start sector | End sector
––––––––––––––––––––––––––––-
1 | 0:00.00 | 4:12.61 | 0 | 18960
2 | 4:12.61 | 4:39.49 | 18961 | 39934
3 | 8:52.35 | 2:16.38 | 39935 | 50172
4 | 11:08.73 | 1:58.25 | 50173 | 59047
5 | 13:07.23 | 1:37.64 | 59048 | 66386
6 | 14:45.12 | 1:23.02 | 66387 | 72613
7 | 16:08.14 | 3:01.26 | 72614 | 86214
8 | 19:09.40 | 2:54.72 | 86215 | 99336
9 | 22:04.37 | 2:33.56 | 99337 | 110867
10 | 24:38.18 | 1:36.16 | 110868 | 118083
11 | 26:14.34 | 1:18.14 | 118084 | 123947
12 | 27:32.48 | 1:32.00 | 123948 | 130847
13 | 29:04.48 | 0:53.33 | 130848 | 134855
14 | 29:58.06 | 1:34.65 | 134856 | 141970
15 | 31:32.71 | 1:59.10 | 141971 | 150905
16 | 33:32.06 | 1:44.66 | 150906 | 158771
17 | 35:16.72 | 0:47.66 | 158772 | 162362
18 | 36:04.63 | 2:28.69 | 162363 | 173531

Range status and errors

Selected range

Filename C:UsersRoyMusicRAMEAU – ZoroastreCD (FLAC + CUE)CD 3Jean-Philippe Rameau – Zoroastre (Disc 3).wav

Peak level 94.5 %
Extraction speed 3.7 X
Range quality 100.0 %
Copy CRC 055229DC
Copy OK

No errors occurred

AccurateRip summary

Track 1 accurately ripped (confidence 29) [3EC4DFD1] (AR v2)
Track 2 accurately ripped (confidence 29) [A84ED045] (AR v2)
Track 3 accurately ripped (confidence 29) [CB079281] (AR v2)
Track 4 accurately ripped (confidence 29) [4A9562A4] (AR v2)
Track 5 accurately ripped (confidence 29) [0FF9EEC0] (AR v2)
Track 6 accurately ripped (confidence 29) [E0B035E1] (AR v2)
Track 7 accurately ripped (confidence 29) [A1E62A99] (AR v2)
Track 8 accurately ripped (confidence 29) [64BFED18] (AR v2)
Track 9 accurately ripped (confidence 29) [58E2795A] (AR v2)
Track 10 accurately ripped (confidence 29) [509594A8] (AR v2)
Track 11 accurately ripped (confidence 29) [62D6553E] (AR v2)
Track 12 accurately ripped (confidence 29) [B02946E8] (AR v2)
Track 13 accurately ripped (confidence 29) [ED570820] (AR v2)
Track 14 accurately ripped (confidence 29) [17DA4962] (AR v2)
Track 15 accurately ripped (confidence 29) [F39E6F28] (AR v2)
Track 16 accurately ripped (confidence 29) [A650FD37] (AR v2)
Track 17 accurately ripped (confidence 29) [1565C2DE] (AR v2)
Track 18 accurately ripped (confidence 29) [7BF536FB] (AR v2)

All tracks accurately ripped

End of status report

–– CUETools DB Plugin V2.1.6

[CTDB TOCID: TX0q4CNmdYFEUm0KPjc5qRBLPEo-] found
Submit result: already submitted
Track | CTDB Status
1 | (30/30) Accurately ripped
2 | (30/30) Accurately ripped
3 | (30/30) Accurately ripped
4 | (30/30) Accurately ripped
5 | (30/30) Accurately ripped
6 | (30/30) Accurately ripped
7 | (30/30) Accurately ripped
8 | (30/30) Accurately ripped
9 | (30/30) Accurately ripped
10 | (30/30) Accurately ripped
11 | (30/30) Accurately ripped
12 | (30/30) Accurately ripped
13 | (30/30) Accurately ripped
14 | (30/30) Accurately ripped
15 | (30/30) Accurately ripped
16 | (30/30) Accurately ripped
17 | (30/30) Accurately ripped
18 | (30/30) Accurately ripped

CUETools Log
[CUETools log; Date: 08.02.2017 21:17:06; Version: 2.1.5]
[CTDB TOCID: TX0q4CNmdYFEUm0KPjc5qRBLPEo-] found.
Track | CTDB Status
1 | (32/32) Accurately ripped
2 | (32/32) Accurately ripped
3 | (32/32) Accurately ripped
4 | (32/32) Accurately ripped
5 | (32/32) Accurately ripped
6 | (32/32) Accurately ripped
7 | (32/32) Accurately ripped
8 | (32/32) Accurately ripped
9 | (32/32) Accurately ripped
10 | (32/32) Accurately ripped
11 | (32/32) Accurately ripped
12 | (32/32) Accurately ripped
13 | (32/32) Accurately ripped
14 | (32/32) Accurately ripped
15 | (32/32) Accurately ripped
16 | (32/32) Accurately ripped
17 | (32/32) Accurately ripped
18 | (32/32) Accurately ripped
[AccurateRip ID: 001cf942-016f98e0-fc090912] found.
Track [ CRC | V2 ] Status
01 [52a47a7f|3ec4dfd1] (20+29/49) Accurately ripped
02 [75e87abe|a84ed045] (20+29/49) Accurately ripped
03 [5c480893|cb079281] (20+29/49) Accurately ripped
04 [55746773|4a9562a4] (20+29/49) Accurately ripped
05 [1cae80a4|0ff9eec0] (20+29/49) Accurately ripped
06 [53cea23a|e0b035e1] (20+29/49) Accurately ripped
07 [8eccb18e|a1e62a99] (20+29/49) Accurately ripped
08 [f1bbd8e5|64bfed18] (20+29/49) Accurately ripped
09 [e15889d5|58e2795a] (20+29/49) Accurately ripped
10 [34427080|509594a8] (20+29/49) Accurately ripped
11 [a99e3cdc|62d6553e] (20+29/49) Accurately ripped
12 [04100e2c|b02946e8] (20+29/49) Accurately ripped
13 [a9d4bb23|ed570820] (20+29/49) Accurately ripped
14 [57ac647f|17da4962] (20+29/49) Accurately ripped
15 [126cb77d|f39e6f28] (20+29/49) Accurately ripped
16 [82e25c5f|a650fd37] (20+29/49) Accurately ripped
17 [4da2a6c3|1565c2de] (20+29/49) Accurately ripped
18 [b43805ce|7bf536fb] (20+29/49) Accurately ripped

Track Peak [ CRC32 ] [W/O NULL] [ LOG ]
– 94,5 [055229DC] [DC88D660] CRC32
01 67,3 [32549919] [13584BDF]
02 77,2 [96EF399D] [03AA7930]
03 74,4 [4032FF5E] [53A3749A]
04 94,5 [ADBCCD89] [C89FED56]
05 60,1 [4487D587] [AF2CE6DC]
06 37,0 [91CA88E3] [6F9F73DD]
07 80,2 [F5A1439E] [104CF8EC]
08 75,4 [2C011D92] [7110FD3E]
09 49,8 [3D2FA7E6] [E424E1D8]
10 32,8 [988B34B1] [056E536D]
11 36,6 [3ACBFE71] [010650FC]
12 29,8 [23D042AC] [697A4E09]
13 16,8 [B70B1BDE] [A5870B8F]
14 24,0 [ECD405BA] [933FBE11]
15 34,4 [DD7B6136] [CF9CEC86]
16 37,8 [94E88C3D] [448B1935]
17 51,3 [938CAD07] [4DF56085]
18 93,2 [9FE55323] [6154C7CC]

Performers:
Zoroastre, instituteur des Mages – Mark Padmore, haute-contre
Abramane, Grand Pretre d’Ariman – Nathan Berg, basse
Amelite, heritiere presomprive du trone de la Bactriane – Gaelle Mechaly, dessus
Erinice, princesse du sang des rois de la Bactriane – Anna Maria Panzarella, dessus
Zopire, pretre d’Ariman – Matthieu Lecroart, basse
Narbanor, pretre d’Ariman – Francois Bazola, basse
Oromases, roi des Genies – Eric Martin Bonnet, basse
Сeрнiе, jeune Bactrienne de la Cour d’Amelite – Stephanie Revidat, dessus
La Vengeance – Matthieu Lecroart, basse
Ariman (voix souterraine) – Eric Martin Bonnet, basse

Choeur et Orchestre des Arts Florissants
William Christie, conductor

Thanks to the Original ripper (unknown)!

Download:

Les Arts Florissants, William Christie – Rameau: Zoroastre (2002) Download, Warez, DDL, Free, Full Album, Torrent, Legal.

Download