Leonard Cohen – The Essential Leonard Cohen (2002) 2CD Repost | ViralVideoPk

Daily Dose of Free Downloads

Leonard Cohen – The Essential Leonard Cohen (2002) 2CD Repost

Download

Leonard Cohen - The Essential Leonard Cohen (2002) 2CD Repost

Leonard Cohen – The Essential Leonard Cohen (2002) 2CD
EAC Rip | FLAC: Image+Cue+Log | 955 Mb | MP3 CBR 320 kbps | 390 Mb | Scans | Time: 77:49 + 78:13
Columbia/Sony Music | 497995 2
Folk Rock, Singer-Songwriter, Spoken Word, Soft Rock

The Essential Leonard Cohen is a career-spanning collection of Leonard Cohen songs released in 2002. It is part of Sony BMG’s The Essential series. The songs are arranged in chronological order; all studio albums released before 2002 are represented, except the 1977 album Death of a Ladies’ Man. All tracks were digitally remastered by Leonard Cohen and Bob Ludwig.

Leonard Cohen - The Essential Leonard Cohen (2002) 2CD Repost
Leonard Cohen
Wikipedia | Amazon
Leonard Cohen - The Essential Leonard Cohen (2002) 2CD Repost

Disc 1

01. Suzanne (03:48)
02. The Stranger Song (04:59)
03. Sisters Of Mercy (03:33)
04. Hey, That’s No Way To Say Goodbye (02:54)
05. So Long, Marianne (05:37)
06. Bird On A Wire (03:25)
07. The Partisan (03:25)
08. Famous Blue Raincoat (05:07)
09. Chelsea Hotel #2 (03:05)
10. Take This Longing (04:06)
11. Who By Fire (02:33)
12. The Guests (06:39)
13. Hallelujah (04:39)
14. If It Be Your Will (03:42)
15. Night Comes On (04:39)
16. I’m Your Man (04:26)
17. Everybody Knows (05:34)
18. Tower Of Song (05:37)

Leonard Cohen - The Essential Leonard Cohen (2002) 2CD Repost

Disc 2

01. Ain’t No Cure For Love (04:50)
02. Take This Waltz (05:58)
03. First We Take Manhattan (05:51)
04. Dance Me To The End Of Love (Live) (06:05)
05. The Future (06:41)
06. Democracy (07:04)
07. Waiting For The Miracle (07:43)
08. Closing Time (05:58)
09. Anthem (06:00)
10. In My Secret Life (04:54)
11. Alexandra Leaving (05:23)
12. A Thousand Kisses Deep (06:26)
13. Love Itself (05:22)

Compilation Produced by Leanne Ungar & Bruce Dickinson

EAC Log CD1
Exact Audio Copy V0.99 prebeta 5 from 4. May 2009

Отчёт EAC об извлечении, выполненном 11. сентября 2010, 7:42

Leonard Cohen / The Essential (CD1)

Дисковод: _NEC DVD_RW ND-4550A Adapter: 4 ID: 0

Режим чтения : Достоверность
Использование точного потока : Да
Отключение кэша аудио : Да
Использование указателей C2 : Нет

Коррекция смещения при чтении : 48
Способность читать области Lead-in и Lead-out : Нет
Заполнение пропущенных сэмплов тишиной : Да
Удаление блоков с тишиной в начале и конце : Нет
При вычислениях CRC использовались нулевые сэмплы : Да
Интерфейс : Встроенный Win32-интерфейс для Win NT/2000

Выходной формат : Внутренние WAV-операции
Формат сэмплов : 44.100 Гц; 16 бит; стерео

TOC извлечённого CD

Трек | Старт | Длительность | Начальный сектор | Конечный сектор
––––––––––––––––––––––––––––––––––-
1 | 0:00.00 | 3:47.50 | 0 | 17074
2 | 3:47.50 | 4:59.08 | 17075 | 39507
3 | 8:46.58 | 3:32.70 | 39508 | 55477
4 | 12:19.53 | 2:54.12 | 55478 | 68539
5 | 15:13.65 | 5:36.60 | 68540 | 93799
6 | 20:50.50 | 3:25.13 | 93800 | 109187
7 | 24:15.63 | 3:24.55 | 109188 | 124542
8 | 27:40.43 | 5:07.25 | 124543 | 147592
9 | 32:47.68 | 3:05.30 | 147593 | 161497
10 | 35:53.23 | 4:05.55 | 161498 | 179927
11 | 39:59.03 | 2:33.10 | 179928 | 191412
12 | 42:32.13 | 6:38.63 | 191413 | 221325
13 | 49:11.01 | 4:38.42 | 221326 | 242217
14 | 53:49.43 | 3:42.03 | 242218 | 258870
15 | 57:31.46 | 4:38.62 | 258871 | 279782
16 | 62:10.33 | 4:25.60 | 279783 | 299717
17 | 66:36.18 | 5:34.25 | 299718 | 324792
18 | 72:10.43 | 5:37.15 | 324793 | 350082

Характеристики диапазона извлечения и сообщения об ошибках

Выбранный диапазон

Имя файла C:TempLeonard Cohen – The Essential (CD1).wav

Пиковый уровень 99.6 %
Качество диапазона 100.0 %
CRC копии 46C987B7
Копирование… OK

Ошибок не произошло

Конец отчёта

EAC Log CD2
Exact Audio Copy V0.99 prebeta 5 from 4. May 2009

Отчёт EAC об извлечении, выполненном 11. сентября 2010, 8:45

Leonard Cohen / The Essential (CD2)

Дисковод: _NEC DVD_RW ND-4550A Adapter: 4 ID: 0

Режим чтения : Достоверность
Использование точного потока : Да
Отключение кэша аудио : Да
Использование указателей C2 : Нет

Коррекция смещения при чтении : 48
Способность читать области Lead-in и Lead-out : Нет
Заполнение пропущенных сэмплов тишиной : Да
Удаление блоков с тишиной в начале и конце : Нет
При вычислениях CRC использовались нулевые сэмплы : Да
Интерфейс : Встроенный Win32-интерфейс для Win NT/2000

Выходной формат : Внутренние WAV-операции
Формат сэмплов : 44.100 Гц; 16 бит; стерео

TOC извлечённого CD

Трек | Старт | Длительность | Начальный сектор | Конечный сектор
––––––––––––––––––––––––––––––––––-
1 | 0:00.00 | 4:49.65 | 0 | 21739
2 | 4:49.65 | 5:58.30 | 21740 | 48619
3 | 10:48.20 | 5:50.48 | 48620 | 74917
4 | 16:38.68 | 6:04.52 | 74918 | 102269
5 | 22:43.45 | 6:40.55 | 102270 | 132324
6 | 29:24.25 | 7:03.57 | 132325 | 164106
7 | 36:28.07 | 7:42.38 | 164107 | 198794
8 | 44:10.45 | 5:57.62 | 198795 | 225631
9 | 50:08.32 | 5:59.65 | 225632 | 252621
10 | 56:08.22 | 4:53.40 | 252622 | 274636
11 | 61:01.62 | 5:22.40 | 274637 | 298826
12 | 66:24.27 | 6:26.17 | 298827 | 327793
13 | 72:50.44 | 5:22.02 | 327794 | 351945

Характеристики диапазона извлечения и сообщения об ошибках

Выбранный диапазон

Имя файла C:TempLeonard Cohen – The Essential (CD2).wav

Пиковый уровень 99.6 %
Качество диапазона 100.0 %
CRC копии 7D26AA3B
Копирование… OK

Ошибок не произошло

Конец отчёта

Many thanks to the original uploader: СПАМ

SEE also:
Leonard Cohen 2012 Old Ideas
Leonard Cohen 2014 Popular Problems

Leonard Cohen – The Essential Leonard Cohen (2002) 2CD Repost Download, Warez, DDL, Free, Full Album, Torrent, Legal.

Download


  • Recent Posts

  • Recent Tags