Legend – Moonshine (1972) [Limited Ed. 2006]

Download
Legend - Moonshine (1972) [Limited Ed. 2006]

Legend – Moonshine (1972) [Limited Ed. 2006]
EAC Rip | FLAC: Image+Cue+Log | 245 Mb | MP3 CBR 320 kbps | 105 Mb | Scans | Time: 36:34
Repertoire Records | REP 5073
Roots Rock, Pub Rock, Blues/Country

Mickey Jupp is one of the legendary heroes of the 1970s rock scene. His band Legend was aptly named, as they were born out of the early British rock’n’roll scene and were avowed favourites of the late, influential British D.J. John Peel.

‘Moonshine’ was the third album by the lads, originally released on the Vertigo label in 1972. It nicely blends their homegrown mixture of rock, blues and country. That was the kind of music that inspired ‘Juppy’ when he started his career as a singer, guitarist, pianist and songwriter in Southend On Sea. A contemporary of fellow rockers Gary Brooker, Lee Brilleaux and Ian Dury, the singer went through many adventures, which he relates in an exclusive new interview for the informative CD liner notes.

‘Moonshine’ was produced by Tony Visconti and includes 11 Juppy originals, together with two bonus tracks. An enjoyable slice of nostalgia and rockin’ good fun!

Wikipedia | Repertoire Records
Legend - Moonshine (1972) [Limited Ed. 2006]

Track Listing

01. Moonshine (3:47)
02. Another Guy (3:28)
03. Mother Of My Child (3:24)
04. Captain Cool (1:43)
05. Ausfahrt (0:54)
06. Eingang (0:39)
07. Shine On My Shoes (2:47)
08. Writer Of Songs (4:57)
09. Local Folk’ Ol (3:03)
10. At The Shop (2:51)
11. Just Because (3:49)

Bonus tracks:
12. Don’t You Never (2:56)
13. Someday (2:16)

Produced by Tony Visconti

The Band

• Mickey Jupp (Michael Graham Jupp) – Lead Vocal, Some Backing Vocals, Rhythm Guitar, Some Lead Guitar, Piano, Comb and Paper
• Mo Witham – Lead Guitar, Somy Rhythm Guitar, Acoustic Guitar, Spanish Guitar, Backing Vocals, Comb and Paper
• Bob Clouter – Drums, Principal Comb and Paper
• John Bobin – Bass Guitar, Backing Vocals, Comb and Paper, and (briefly) Spanish Guitar and Lead Guitar

Notes

Tracks 1-11 Originally released as (UK) Vertigo 6360063, ℗ 1972
Track 12 A-Single (UK) Vertigo 6059036, ℗ 1971
Track 13 B-Single (UK) Vertigo 6059036, ℗ 1971

Limited to 2500 copies

EAC Log
Exact Audio Copy V1.0 beta 3 from 29. August 2011

EAC extraction logfile from 16. August 2014, 20:20

Legend / Moonshine

Used drive : PLDS DVD-RW DH16AESH Adapter: 0 ID: 0

Read mode : Secure
Utilize accurate stream : Yes
Defeat audio cache : Yes
Make use of C2 pointers : No

Read offset correction : 6
Overread into Lead-In and Lead-Out : No
Fill up missing offset samples with silence : Yes
Delete leading and trailing silent blocks : No
Null samples used in CRC calculations : Yes
Used interface : Installed external ASPI interface

Used output format : User Defined Encoder
Selected bitrate : 768 kBit/s
Quality : High
Add ID3 tag : Yes
Command line compressor : C:Program Files (x86)Exact Audio CopyFlacflac.exe
Additional command line options : -V -8 -T "Date=%year%" -T "Genre=%genre%" %source%

TOC of the extracted CD

Track | Start | Length | Start sector | End sector
––––––––––––––––––––––––––––-
1 | 0:00.00 | 3:49.26 | 0 | 17200
2 | 3:49.26 | 3:30.14 | 17201 | 32964
3 | 7:19.40 | 3:25.73 | 32965 | 48412
4 | 10:45.38 | 1:43.37 | 48413 | 56174
5 | 12:29.00 | 0:56.20 | 56175 | 60394
6 | 13:25.20 | 0:41.51 | 60395 | 63520
7 | 14:06.71 | 2:50.29 | 63521 | 76299
8 | 16:57.25 | 4:57.28 | 76300 | 98602
9 | 21:54.53 | 3:04.50 | 98603 | 112452
10 | 24:59.28 | 2:52.72 | 112453 | 125424
11 | 27:52.25 | 3:51.15 | 125425 | 142764
12 | 31:43.40 | 2:58.06 | 142765 | 156120
13 | 34:41.46 | 2:16.25 | 156121 | 166345

Range status and errors

Selected range

Filename D:Legend – Moonshine.wav

Peak level 100.0 %
Extraction speed 5.8 X
Range quality 100.0 %
Test CRC 25E72B4B
Copy CRC 25E72B4B
Copy OK

No errors occurred

AccurateRip summary

Track 1 cannot be verified as accurate (confidence 2) [234DE2CA], AccurateRip returned [F52C113F] (AR v2)
Track 2 cannot be verified as accurate (confidence 2) [E8AC1139], AccurateRip returned [156A2B90] (AR v2)
Track 3 cannot be verified as accurate (confidence 2) [7E3A7937], AccurateRip returned [EEACE85F] (AR v2)
Track 4 cannot be verified as accurate (confidence 2) [686DF219], AccurateRip returned [D8BEAC36] (AR v2)
Track 5 cannot be verified as accurate (confidence 2) [BE474374], AccurateRip returned [1AE80D40] (AR v2)
Track 6 cannot be verified as accurate (confidence 2) [EFC78073], AccurateRip returned [1DBDF9F9] (AR v2)
Track 7 cannot be verified as accurate (confidence 2) [00BE222C], AccurateRip returned [8A807238] (AR v2)
Track 8 cannot be verified as accurate (confidence 2) [FC4D4757], AccurateRip returned [956AC03D] (AR v2)
Track 9 cannot be verified as accurate (confidence 2) [824A5657], AccurateRip returned [32D9F4E0] (AR v2)
Track 10 cannot be verified as accurate (confidence 2) [56778FCE], AccurateRip returned [F62F8278] (AR v2)
Track 11 cannot be verified as accurate (confidence 2) [06FC4E1A], AccurateRip returned [AD6DD138] (AR v2)
Track 12 cannot be verified as accurate (confidence 2) [ACA2719D], AccurateRip returned [3EE2D791] (AR v2)
Track 13 cannot be verified as accurate (confidence 2) [5E453772], AccurateRip returned [7E4B9915] (AR v2)

No tracks could be verified as accurate
You may have a different pressing from the one(s) in the database

End of status report

==== Log checksum 5683BDFC7C0C933EEB1A85E0A70277E346219C103D1E9BDA12CCA32684B74887 ====

Many thanks to the original uploader: altep

SEE also:
Legend 1971 Legend (aka Red Boot) [Limited Ed. 2005]

……
Welcome to My Blog for more wonderful music!
……

Legend – Moonshine (1972) [Limited Ed. 2006] Download, Warez, DDL, Free, Full Album, Torrent, Legal.

Download