Legend – Legend (aka Red Boot) (1971) [Limited Ed. 2005]

Download
Legend - Legend (aka Red Boot) (1971) [Limited Ed. 2005]

Legend – Legend (aka Red Boot) (1971) [Limited Ed. 2005]
EAC Rip | FLAC: Image+Cue+Log | 322 Mb | MP3 CBR 320 kbps | 117 Mb | Scans | Time: 46:58
Repertoire Records (UK) Ltd. | REPUK 1064
Roots Rock, Pub Rock, Blues/Country

Here is a band that is indeed ‘legendary’. It features Mickey Jupp, the singer, guitarist and piano player who pioneered British rock’n’roll in the early Sixties and remained true to the roots of the music. Hailing from Southend On Sea, ‘Juppy’ formed this version of Legend, in 1969.

Their album, produced by Tony Visconti for the Vertigo label, was released in 1971. Beloved of pub rock fans and championed by the late DJ John Peel, Legend featured Mickey Jupp alongside Mo Witham (guitar), John Bobin (bass) and Bill Fifield (drums).

The album has a dozen original lively compositions, often with an ironic flavour like ‘Cheque Book’ and ‘Hole In My Pocket’. Among four bonus items is ‘Life’, the A- side of a single that was a hit in Italy.

Legend - Legend (aka Red Boot) (1971) [Limited Ed. 2005]
Wikipedia | Repertoire Records
Legend - Legend (aka Red Boot) (1971) [Limited Ed. 2005]

Track Listing

01. Cross Country (3:26)
02. Cheque Book (3:20)
03. Lorraine Part 1 (2:57)
04. Nothing Wrong With Me (2:05)
05. Somebody In Love (2:41)
06. Goin’ To (2:35)
07. Anything You Do (3:06)
08. My Typewriter (2:54)
09. Five Years (2:58)
10. Hole In My Pocket (2:07)
11. Lorraine Part 2 (3:32)
12. I Feel Like Sleeping (3:15)

Bonus tracks:
13. Life (3:00)
14. Late Last Night (3:52)
15. Don’t You Never (2:54)
16. Someday (2:16)

Produced by Tony Visconti

The Band

• Mickey Jupp (Michael Graham Jupp) – Lead Guitar, Lead Vocal, Piano
• Mo Witham – Rhythm Guitar, Backing Vocals
• John Bobin – Bass Guitar, Backing Vocals
• Bill Fifield – Drums

Notes

Tracks 1-12 Originally released as (UK) Vertigo 6360019 ℗ 1971
Tracks 13-14 Single (UK) Vertigo 6059021 ℗ 1971
Tracks 15-16 Single (UK) Vertigo 6059036 ℗ 1971

Limited to 2500 copies

EAC Log
Exact Audio Copy V1.0 beta 3 from 29. August 2011

EAC extraction logfile from 17. August 2014, 0:28

Legend / Legend (aka Red Boot)

Used drive : PLDS DVD-RW DH16AESH Adapter: 0 ID: 0

Read mode : Secure
Utilize accurate stream : Yes
Defeat audio cache : Yes
Make use of C2 pointers : No

Read offset correction : 6
Overread into Lead-In and Lead-Out : No
Fill up missing offset samples with silence : Yes
Delete leading and trailing silent blocks : No
Null samples used in CRC calculations : Yes
Used interface : Installed external ASPI interface

Used output format : User Defined Encoder
Selected bitrate : 768 kBit/s
Quality : High
Add ID3 tag : Yes
Command line compressor : C:Program Files (x86)Exact Audio CopyFlacflac.exe
Additional command line options : -V -8 -T "Date=%year%" -T "Genre=%genre%" %source%

TOC of the extracted CD

Track | Start | Length | Start sector | End sector
––––––––––––––––––––––––––––-
1 | 0:00.00 | 3:28.01 | 0 | 15600
2 | 3:28.01 | 3:22.65 | 15601 | 30815
3 | 6:50.66 | 2:58.67 | 30816 | 44232
4 | 9:49.58 | 2:06.63 | 44233 | 53745
5 | 11:56.46 | 2:42.60 | 53746 | 65955
6 | 14:39.31 | 2:37.48 | 65956 | 77778
7 | 17:17.04 | 3:08.37 | 77779 | 91915
8 | 20:25.41 | 2:57.29 | 91916 | 105219
9 | 23:22.70 | 3:00.32 | 105220 | 118751
10 | 26:23.27 | 2:09.53 | 118752 | 128479
11 | 28:33.05 | 3:34.41 | 128480 | 144570
12 | 32:07.46 | 3:16.63 | 144571 | 159333
13 | 35:24.34 | 3:02.11 | 159334 | 172994
14 | 38:26.45 | 3:54.10 | 172995 | 190554
15 | 42:20.55 | 2:56.39 | 190555 | 203793
16 | 45:17.19 | 2:16.27 | 203794 | 214020

Range status and errors

Selected range

Filename D:Legend – Legend (aka Red Boot).wav

Peak level 98.8 %
Extraction speed 6.1 X
Range quality 100.0 %
Test CRC 4B8F382B
Copy CRC 4B8F382B
Copy OK

No errors occurred

AccurateRip summary

Track 1 cannot be verified as accurate (confidence 2) [DD8971E3], AccurateRip returned [38805375] (AR v2)
Track 2 cannot be verified as accurate (confidence 2) [3EC66C5F], AccurateRip returned [F6A44475] (AR v2)
Track 3 cannot be verified as accurate (confidence 2) [E35B16E7], AccurateRip returned [276E2A2A] (AR v2)
Track 4 cannot be verified as accurate (confidence 2) [64E3B336], AccurateRip returned [F92CA81E] (AR v2)
Track 5 cannot be verified as accurate (confidence 2) [73FB8FB3], AccurateRip returned [7E8FD471] (AR v2)
Track 6 cannot be verified as accurate (confidence 2) [058FF734], AccurateRip returned [6935E187] (AR v2)
Track 7 cannot be verified as accurate (confidence 2) [33E6AC89], AccurateRip returned [02B39A2F] (AR v2)
Track 8 cannot be verified as accurate (confidence 2) [31036A6D], AccurateRip returned [F4E70833] (AR v2)
Track 9 cannot be verified as accurate (confidence 2) [C0CA76FA], AccurateRip returned [424C09D5] (AR v2)
Track 10 cannot be verified as accurate (confidence 2) [0FAA0598], AccurateRip returned [57CF0F73] (AR v2)
Track 11 cannot be verified as accurate (confidence 2) [D45F5CD7], AccurateRip returned [C971CA5F] (AR v2)
Track 12 cannot be verified as accurate (confidence 2) [4CD294A6], AccurateRip returned [360479F5] (AR v2)
Track 13 cannot be verified as accurate (confidence 2) [01DE5C97], AccurateRip returned [13917035] (AR v2)
Track 14 cannot be verified as accurate (confidence 2) [3B17EF9F], AccurateRip returned [5410A9AC] (AR v2)
Track 15 cannot be verified as accurate (confidence 2) [470924A3], AccurateRip returned [F52A9D00] (AR v2)
Track 16 cannot be verified as accurate (confidence 2) [6E9F990B], AccurateRip returned [7096126C] (AR v2)

No tracks could be verified as accurate
You may have a different pressing from the one(s) in the database

End of status report

==== Log checksum 5F828E687B9961E933878F0080A8F332234BB2210F6F7FF6B642537ED5945E33 ====

Many thanks to the original uploader: altep

SEE also:
Legend 1972 Moonshine [Limited Ed. 2006]

……
Welcome to My Blog for more wonderful music!
……

Legend – Legend (aka Red Boot) (1971) [Limited Ed. 2005] Download, Warez, DDL, Free, Full Album, Torrent, Legal.

Download