Left Lane Cruiser – Beck In Black (2016) {Alive Naturalsound Records Alive 0179-2}

Download
Left Lane Cruiser - Beck In Black (2016) {Alive Naturalsound Records Alive 0179-2}

Left Lane Cruiser – Beck In Black (2016) {Alive Naturalsound Records Alive 0179-2}
EAC rip (secure mode) | FLAC (tracks)+CUE+LOG -> 391 Mb | MP3 @320 -> 131 Mb
Full Artwork @ 600 dpi (jpg) -> 58 Mb | 5% repair rar
© 2016 Alive Naturalsound Records | Alive 0179-2
Rock / Blues / Blues Rock

When half of a band’s original lineup packs up and leaves, it’s a pretty big deal, at least to the group and their fans. Left Lane Cruiser were populated by just two guys for their first ten years – Frederick "Joe" Evans IV on guitar and vocals, and Brenn Beck on drums – and after Beck quit the group in 2014, Alive Naturalsound decided to mark the end of an era with Beck in Black, a collection of material from the duo’s years with Beck behind the drums. Left Lane Cruiser are very good at what they do, but they have only so many moves in their repertoire, and Beck in Black covers them all – heavy-hitting blues-rock with lots of gnarly slide guitar, Brontosaurus stomp rhythms, and lyrics about women, whiskey, weed, and dangerous good times of all stripes.

As far as the honoree is concerned, Beck in Black demonstrates Beck’s skills behind the kit, from the frantic trash-can percussion of "Zombie Blocked" and jittery drive of "Crackalacka" to the bluesy groove of "The Pusher" and the near-funky skip of "Chevrolet." "The Pusher" is one of six unreleased tracks appearing on this album, which on one hand makes it more than just another LLC "best-of" album, but on the other means that serious fans will probably want it even though chances are good they already own eight of the numbers appearing here. The gruff but wiry guitar work and howling vocals from Evans are Left Lane Cruiser’s sonic hallmarks, and they’re available in abundance here, wailing in fourth gear no matter what the theme or tempo of the song. Beck in Black may be a farewell to the group’s first drummer, but it’s also an effective summary of Left Lane Cruiser’s recorded work in their first decade. If you want an introduction to this band’s raw, big-city blues, this will do you just fine.

Left Lane Cruiser - Beck In Black (2016) {Alive Naturalsound Records Alive 0179-2}

Track List:
01. The Pusher
02. Circus
03. G Bob
04. Bloodhound
05. Zombie Blocked
06. Chevrolet
07. Sausage Paw
08. Crackalacka
09. Hip Hop
10. Heavy
11. Maybe
12. Amy’s In The Kitchen
13. Chicken
14. Juice To Get Loose

EAC log
Exact Audio Copy V1.0 beta 3 from 29. August 2011

EAC extraction logfile from 21. January 2017, 22:34

Left Lane Cruiser / Beck In Black

Used drive : ASUS DRW-24F1ST a Adapter: 0 ID: 0

Read mode : Secure
Utilize accurate stream : Yes
Defeat audio cache : Yes
Make use of C2 pointers : No

Read offset correction : 6
Overread into Lead-In and Lead-Out : No
Fill up missing offset samples with silence : Yes
Delete leading and trailing silent blocks : No
Null samples used in CRC calculations : Yes
Used interface : Native Win32 interface for Win NT & 2000
Gap handling : Appended to previous track

Used output format : User Defined Encoder
Selected bitrate : 128 kBit/s
Quality : High
Add ID3 tag : No
Command line compressor : C:Program Files (x86)Exact Audio CopyFLACFLAC.EXE
Additional command line options : -8 -V -T "ARTIST=%artist%" -T "TITLE=%title%" -T "ALBUM=%albumtitle%" -T "DATE=%year%" -T "TRACKNUMBER=%tracknr%" -T "TOTALTRACKS=%numtracks%" -T "GENRE=%genre%" -T "ALBUMARTIST=%albumartist%" -T "ALBUM ARTIST=%albumartist%" -T "COMMENT=EAC Secure Mode, Test & Copy, AccurateRip, FLAC -8" %source%

TOC of the extracted CD

Track | Start | Length | Start sector | End sector
––––––––––––––––––––––––––––-
1 | 0:00.00 | 6:26.49 | 0 | 28998
2 | 6:26.49 | 2:46.74 | 28999 | 41522
3 | 9:13.48 | 3:12.18 | 41523 | 55940
4 | 12:25.66 | 3:58.72 | 55941 | 73862
5 | 16:24.63 | 3:37.30 | 73863 | 90167
6 | 20:02.18 | 2:33.34 | 90168 | 101676
7 | 22:35.52 | 4:42.45 | 101677 | 122871
8 | 27:18.22 | 3:57.05 | 122872 | 140651
9 | 31:15.27 | 5:37.35 | 140652 | 165961
10 | 36:52.62 | 4:39.19 | 165962 | 186905
11 | 41:32.06 | 4:27.52 | 186906 | 206982
12 | 45:59.58 | 3:29.59 | 206983 | 222716
13 | 49:29.42 | 3:22.30 | 222717 | 237896
14 | 52:51.72 | 2:25.22 | 237897 | 248793

Track 1

Filename K:EAC1 – The Pusher.wav

Pre-gap length 0:00:02.00

Peak level 98.8 %
Extraction speed 4.7 X
Track quality 100.0 %
Test CRC 6655D2CB
Copy CRC 6655D2CB
Accurately ripped (confidence 1) [9B422162] (AR v2)
Copy OK

Track 2

Filename K:EAC2 – Circus.wav

Peak level 98.8 %
Extraction speed 3.9 X
Track quality 99.9 %
Test CRC 6C7EC91C
Copy CRC 6C7EC91C
Accurately ripped (confidence 1) [76B35863] (AR v2)
Copy OK

Track 3

Filename K:EAC3 – G Bob.wav

Peak level 97.7 %
Extraction speed 4.4 X
Track quality 99.9 %
Test CRC 8FCF6B6A
Copy CRC 8FCF6B6A
Accurately ripped (confidence 1) [114B89A6] (AR v2)
Copy OK

Track 4

Filename K:EAC4 – Bloodhound.wav

Peak level 98.8 %
Extraction speed 5.6 X
Track quality 100.0 %
Test CRC CF734CB6
Copy CRC CF734CB6
Accurately ripped (confidence 1) [4FDC5E83] (AR v2)
Copy OK

Track 5

Filename K:EAC5 – Zombie Blocked.wav

Peak level 98.8 %
Extraction speed 5.8 X
Track quality 100.0 %
Test CRC FC97765B
Copy CRC FC97765B
Accurately ripped (confidence 1) [71F2D4E5] (AR v2)
Copy OK

Track 6

Filename K:EAC6 – Chevrolet.wav

Pre-gap length 0:00:01.03

Peak level 98.8 %
Extraction speed 5.7 X
Track quality 100.0 %
Test CRC A5EB98A6
Copy CRC A5EB98A6
Accurately ripped (confidence 1) [C2E859E9] (AR v2)
Copy OK

Track 7

Filename K:EAC7 – Sausage Paw.wav

Pre-gap length 0:00:00.70

Peak level 98.8 %
Extraction speed 6.7 X
Track quality 100.0 %
Test CRC 939CC22E
Copy CRC 939CC22E
Accurately ripped (confidence 1) [8C0FA38A] (AR v2)
Copy OK

Track 8

Filename K:EAC8 – Crackalacka.wav

Pre-gap length 0:00:02.01

Peak level 98.8 %
Extraction speed 6.0 X
Track quality 99.9 %
Test CRC ECE27DBF
Copy CRC ECE27DBF
Accurately ripped (confidence 1) [8B652631] (AR v2)
Copy OK

Track 9

Filename K:EAC9 – Hip Hop.wav

Pre-gap length 0:00:01.70

Peak level 96.0 %
Extraction speed 7.5 X
Track quality 100.0 %
Test CRC D5C31CB2
Copy CRC D5C31CB2
Accurately ripped (confidence 1) [660C3BEA] (AR v2)
Copy OK

Track 10

Filename K:EAC10 – Heavy.wav

Pre-gap length 0:00:02.43

Peak level 98.8 %
Extraction speed 7.6 X
Track quality 100.0 %
Test CRC 068418D4
Copy CRC 068418D4
Accurately ripped (confidence 1) [A3A8B09B] (AR v2)
Copy OK

Track 11

Filename K:EAC11 – Maybe.wav

Pre-gap length 0:00:00.58

Peak level 98.8 %
Extraction speed 7.8 X
Track quality 100.0 %
Test CRC B48A6A64
Copy CRC B48A6A64
Accurately ripped (confidence 1) [F19A6DCF] (AR v2)
Copy OK

Track 12

Filename K:EAC12 – Amy’s In The Kitchen.wav

Pre-gap length 0:00:00.26

Peak level 98.8 %
Extraction speed 6.7 X
Track quality 99.9 %
Test CRC 2C76D633
Copy CRC 2C76D633
Accurately ripped (confidence 1) [44A4AC59] (AR v2)
Copy OK

Track 13

Filename K:EAC13 – Chicken.wav

Pre-gap length 0:00:02.01

Peak level 98.8 %
Extraction speed 7.7 X
Track quality 100.0 %
Test CRC 9B06B4F9
Copy CRC 9B06B4F9
Accurately ripped (confidence 1) [98E035F4] (AR v2)
Copy OK

Track 14

Filename K:EAC14 – Juice To Get Loose (instrumental version).wav

Pre-gap length 0:00:01.03

Peak level 98.8 %
Extraction speed 7.5 X
Track quality 100.0 %
Test CRC 661E6F2E
Copy CRC 661E6F2E
Accurately ripped (confidence 1) [38E86DA1] (AR v2)
Copy OK

All tracks accurately ripped

No errors occurred

End of status report

==== Log checksum CA4952E1C9F3072D12825BA1B540918CBA3668C142DBC6D903C44EF78F94A022 ====

Left Lane Cruiser - Beck In Black (2016) {Alive Naturalsound Records Alive 0179-2}

Left Lane Cruiser - Beck In Black (2016) {Alive Naturalsound Records Alive 0179-2}

All thanks goes to the original releaser!

===

Left Lane Cruiser – Beck In Black (2016) {Alive Naturalsound Records Alive 0179-2} Download, Warez, DDL, Free, Full Album, Torrent, Legal.

Download