Lee Marrow – Greatest Hits & Remixes (2017)

Download
Lee Marrow - Greatest Hits & Remixes (2017)

Lee Marrow – Greatest Hits & Remixes
Italo Disco, Eurodance | FLAC (tracks)+cue, artwork | 106:26 min | 809 MB
Label: ZYX Music | Tracks: 20 | Rls.date: 2017

In 1985 Lee Marrow had his big hit "Shanghai". The song made it to the TOP 20 in many European countries. As usual, "Greatest Hits & Remixes" provides all hits as 7" versions on CD1 and the best extended versions and remixes on CD2.

Lee Marrow - Greatest Hits & Remixes (2017)

TRACKLIST CD1
01. Shanghai (Short Version) (03:36)
02. Sayonara (Don’t Stop…) (7” Vocal Version) (03:40)
03. Cannibals (Baa-Boù – Baa-Boù) (7” Version) (04:11)
04. Mr. Fantasy (Vocal Version) (05:25)
05. Don’t Stop The Music (7” Version) (03:54)
06. Movin’ (7” Version) (03:10)
07. Lot To Learn (Radio Edit) (03:49)
08. Do You Want Me (7” Version) (03:36)
09. Megamix (06:21)
10. Don’t Stop The Music (Instrumental) (04:48)

EAC Log
Exact Audio Copy V1.3 from 2. September 2016

EAC extraction logfile from 7. February 2017, 22:10

Lee Marrow / Greatest Hits & Remixes

Used drive : PLEXTOR DVDR PX-891SA Adapter: 1 ID: 0

Read mode : Secure
Utilize accurate stream : Yes
Defeat audio cache : Yes
Make use of C2 pointers : No

Read offset correction : 6
Overread into Lead-In and Lead-Out : No
Fill up missing offset samples with silence : Yes
Delete leading and trailing silent blocks : No
Null samples used in CRC calculations : Yes
Used interface : Native Win32 interface for Win NT & 2000
Gap handling : Appended to previous track

Used output format : User Defined Encoder
Selected bitrate : 1024 kBit/s
Quality : High
Add ID3 tag : No
Command line compressor : C:Program Files (x86)Exact Audio CopyFlacflac.exe
Additional command line options : -0 -V -T "ARTIST=%artist%" -T "TITLE=%title%" -T "ALBUM=%albumtitle%" -T "DATE=%year%" -T "TRACKNUMBER=%tracknr%" -T "TOTALTRACKS=%numtracks%" -T "GENRE=%genre%" -T "COMMENT=Naftamusic Release!" %source%

TOC of the extracted CD

Track | Start | Length | Start sector | End sector
––––––––––––––––––––––––––––-
1 | 0:00.00 | 3:35.74 | 0 | 16198
2 | 3:35.74 | 3:39.22 | 16199 | 32645
3 | 7:15.21 | 4:10.66 | 32646 | 51461
4 | 11:26.12 | 5:25.12 | 51462 | 75848
5 | 16:51.24 | 3:53.46 | 75849 | 93369
6 | 20:44.70 | 3:09.70 | 93370 | 107614
7 | 23:54.65 | 3:48.35 | 107615 | 124749
8 | 27:43.25 | 3:35.49 | 124750 | 140923
9 | 31:18.74 | 6:21.00 | 140924 | 169498
10 | 37:39.74 | 4:47.43 | 169499 | 191066

Track 1

Filename E:Nafta ReleasesLee Marrow – Greatest Hits & Remixes (2 CD 2017)[FLAC] – NaftamusicCD 11 – Shanghai (Short Version).wav

Pre-gap length 0:00:02.00

Peak level 98.7 %
Extraction speed 1.8 X
Track quality 100.0 %
Test CRC AE904412
Copy CRC AE904412
Track not present in AccurateRip database
Copy OK

Track 2

Filename E:Nafta ReleasesLee Marrow – Greatest Hits & Remixes (2 CD 2017)[FLAC] – NaftamusicCD 12 – Sayonara (don’t Stop…) (7” Vocal Version).wav

Peak level 98.7 %
Extraction speed 2.0 X
Track quality 100.0 %
Test CRC 1F287551
Copy CRC 1F287551
Track not present in AccurateRip database
Copy OK

Track 3

Filename E:Nafta ReleasesLee Marrow – Greatest Hits & Remixes (2 CD 2017)[FLAC] – NaftamusicCD 13 – Cannibals (Baa-bou – Baa-bou) (7” Version).wav

Peak level 98.7 %
Extraction speed 2.3 X
Track quality 100.0 %
Test CRC ACA0C8B8
Copy CRC ACA0C8B8
Track not present in AccurateRip database
Copy OK

Track 4

Filename E:Nafta ReleasesLee Marrow – Greatest Hits & Remixes (2 CD 2017)[FLAC] – NaftamusicCD 14 – Mr. Fantasy (Vocal Version).wav

Peak level 98.7 %
Extraction speed 2.5 X
Track quality 100.0 %
Test CRC 599D0A0E
Copy CRC 599D0A0E
Track not present in AccurateRip database
Copy OK

Track 5

Filename E:Nafta ReleasesLee Marrow – Greatest Hits & Remixes (2 CD 2017)[FLAC] – NaftamusicCD 15 – Don’t Stop The Music (7” Version).wav

Peak level 78.2 %
Extraction speed 2.6 X
Track quality 100.0 %
Test CRC 9C16C28C
Copy CRC 9C16C28C
Track not present in AccurateRip database
Copy OK

Track 6

Filename E:Nafta ReleasesLee Marrow – Greatest Hits & Remixes (2 CD 2017)[FLAC] – NaftamusicCD 16 – Movin’ (7” Version).wav

Peak level 98.7 %
Extraction speed 2.6 X
Track quality 100.0 %
Test CRC 12C6FB7E
Copy CRC 12C6FB7E
Track not present in AccurateRip database
Copy OK

Track 7

Filename E:Nafta ReleasesLee Marrow – Greatest Hits & Remixes (2 CD 2017)[FLAC] – NaftamusicCD 17 – Lot To Learn (Radio Edit).wav

Peak level 96.2 %
Extraction speed 2.9 X
Track quality 100.0 %
Test CRC B4D1FC5D
Copy CRC B4D1FC5D
Track not present in AccurateRip database
Copy OK

Track 8

Filename E:Nafta ReleasesLee Marrow – Greatest Hits & Remixes (2 CD 2017)[FLAC] – NaftamusicCD 18 – Do You Want Me (7” Version).wav

Peak level 98.7 %
Extraction speed 3.0 X
Track quality 100.0 %
Test CRC E67D273B
Copy CRC E67D273B
Track not present in AccurateRip database
Copy OK

Track 9

Filename E:Nafta ReleasesLee Marrow – Greatest Hits & Remixes (2 CD 2017)[FLAC] – NaftamusicCD 19 – Megamix (Shanghai-Sayonara-Do You Want Me-To Go Crazy-Cannibals).wav

Peak level 70.0 %
Extraction speed 3.3 X
Track quality 100.0 %
Test CRC D205881D
Copy CRC D205881D
Track not present in AccurateRip database
Copy OK

Track 10

Filename E:Nafta ReleasesLee Marrow – Greatest Hits & Remixes (2 CD 2017)[FLAC] – NaftamusicCD 110 – Don’t Stop The Music (Instrumental).wav

Peak level 98.7 %
Extraction speed 3.4 X
Track quality 100.0 %
Test CRC CFC10D1D
Copy CRC CFC10D1D
Track not present in AccurateRip database
Copy OK

None of the tracks are present in the AccurateRip database

No errors occurred

End of status report

==== Log checksum 60EF8ADEFC6D866130181F6BC102873795DF4D6CE9F81B3578AEB989E39E5950 ====

Lee Marrow - Greatest Hits & Remixes (2017)

TRACKLIST CD2
01. Shanghai (Vocal Version) (05:41)
02. Sayonara (Don’t Stop) (Vocal Version) (08:03)
03. Cannibals (Baa-Boù – Baa-Boù) (12” Version) (05:57)
04. Don’t Stop The Music (Vocal Version) (05:58)
05. Shangai (Remix) (06:21)
06. Sayonara (Don’t Stop) (Short Version) (05:51)
07. Cannibals (Baa-Boù – Baa-Boù) (First Version) (07:09)
08. Shanghai (Special D.J.) (06:02)
09. Lot To Learn (A Tast Of American Mix) (06:58)
10. Do You Want Me (Extended Version) (06:12)

EAC Log
Exact Audio Copy V1.3 from 2. September 2016

EAC extraction logfile from 7. February 2017, 23:33

Lee Marrow / Greatest Hits & Remixes

Used drive : PLEXTOR DVDR PX-891SA Adapter: 1 ID: 0

Read mode : Secure
Utilize accurate stream : Yes
Defeat audio cache : Yes
Make use of C2 pointers : No

Read offset correction : 6
Overread into Lead-In and Lead-Out : No
Fill up missing offset samples with silence : Yes
Delete leading and trailing silent blocks : No
Null samples used in CRC calculations : Yes
Used interface : Native Win32 interface for Win NT & 2000
Gap handling : Appended to previous track

Used output format : User Defined Encoder
Selected bitrate : 1024 kBit/s
Quality : High
Add ID3 tag : No
Command line compressor : C:Program Files (x86)Exact Audio CopyFlacflac.exe
Additional command line options : -0 -V -T "ARTIST=%artist%" -T "TITLE=%title%" -T "ALBUM=%albumtitle%" -T "DATE=%year%" -T "TRACKNUMBER=%tracknr%" -T "TOTALTRACKS=%numtracks%" -T "GENRE=%genre%" -T "COMMENT=Naftamusic Release!" %source%

TOC of the extracted CD

Track | Start | Length | Start sector | End sector
––––––––––––––––––––––––––––-
1 | 0:00.00 | 5:40.53 | 0 | 25552
2 | 5:40.53 | 8:02.48 | 25553 | 61750
3 | 13:43.26 | 5:56.14 | 61751 | 88464
4 | 19:39.40 | 5:57.40 | 88465 | 115279
5 | 25:37.05 | 6:21.00 | 115280 | 143854
6 | 31:58.05 | 5:50.64 | 143855 | 170168
7 | 37:48.69 | 7:08.58 | 170169 | 202326
8 | 44:57.52 | 6:01.73 | 202327 | 229474
9 | 50:59.50 | 6:58.00 | 229475 | 260824
10 | 57:57.50 | 6:11.20 | 260825 | 288669

Track 1

Filename E:Nafta ReleasesLee Marrow – Greatest Hits & Remixes (2 CD 2017)[FLAC] – NaftamusicCD 21 – Shanghai (12” Vocal Version).wav

Pre-gap length 0:00:02.00

Peak level 98.7 %
Extraction speed 2.1 X
Track quality 100.0 %
Test CRC 468226B1
Copy CRC 468226B1
Track not present in AccurateRip database
Copy OK

Track 2

Filename E:Nafta ReleasesLee Marrow – Greatest Hits & Remixes (2 CD 2017)[FLAC] – NaftamusicCD 22 – Sayonara (Don’t Stop…) (12” Vocal Version).wav

Peak level 87.1 %
Extraction speed 2.5 X
Track quality 100.0 %
Test CRC 3A4FB37D
Copy CRC 3A4FB37D
Track not present in AccurateRip database
Copy OK

Track 3

Filename E:Nafta ReleasesLee Marrow – Greatest Hits & Remixes (2 CD 2017)[FLAC] – NaftamusicCD 23 – Cannibals (Baa-Boù-Baa-Boù) (12” Version).wav

Peak level 98.7 %
Extraction speed 2.8 X
Track quality 100.0 %
Test CRC 72A6B616
Copy CRC 72A6B616
Track not present in AccurateRip database
Copy OK

Track 4

Filename E:Nafta ReleasesLee Marrow – Greatest Hits & Remixes (2 CD 2017)[FLAC] – NaftamusicCD 24 – Don’t Stop The Music (12” Vocal Version).wav

Peak level 98.7 %
Extraction speed 2.5 X
Track quality 99.9 %
Test CRC 3D1CE255
Copy CRC 3D1CE255
Track not present in AccurateRip database
Copy OK

Track 5

Filename E:Nafta ReleasesLee Marrow – Greatest Hits & Remixes (2 CD 2017)[FLAC] – NaftamusicCD 25 – Shanghai (12” Remix).wav

Peak level 97.4 %
Extraction speed 3.3 X
Track quality 100.0 %
Test CRC 699A80BC
Copy CRC 699A80BC
Track not present in AccurateRip database
Copy OK

Track 6

Filename E:Nafta ReleasesLee Marrow – Greatest Hits & Remixes (2 CD 2017)[FLAC] – NaftamusicCD 26 – Sayonara (Don’t Stop…) (12” Short Version).wav

Peak level 95.7 %
Extraction speed 3.5 X
Track quality 100.0 %
Test CRC F78284D3
Copy CRC F78284D3
Track not present in AccurateRip database
Copy OK

Track 7

Filename E:Nafta ReleasesLee Marrow – Greatest Hits & Remixes (2 CD 2017)[FLAC] – NaftamusicCD 27 – Cannibals (Baa-Boù-Baa-Boù) (12” First Version).wav

Peak level 98.7 %
Extraction speed 3.8 X
Track quality 100.0 %
Test CRC 49F2F02B
Copy CRC 49F2F02B
Track not present in AccurateRip database
Copy OK

Track 8

Filename E:Nafta ReleasesLee Marrow – Greatest Hits & Remixes (2 CD 2017)[FLAC] – NaftamusicCD 28 – Shanghai (12” Special DJ Version).wav

Peak level 98.7 %
Extraction speed 3.9 X
Track quality 100.0 %
Test CRC FAE5997F
Copy CRC FAE5997F
Track not present in AccurateRip database
Copy OK

Track 9

Filename E:Nafta ReleasesLee Marrow – Greatest Hits & Remixes (2 CD 2017)[FLAC] – NaftamusicCD 29 – Lot To Learn (12” A Taste Of American Mix).wav

Peak level 98.7 %
Extraction speed 3.4 X
Track quality 99.9 %
Test CRC E0FEBC17
Copy CRC E0FEBC17
Track not present in AccurateRip database
Copy OK

Track 10

Filename E:Nafta ReleasesLee Marrow – Greatest Hits & Remixes (2 CD 2017)[FLAC] – NaftamusicCD 210 – Do You Want Me (Extended Version).wav

Peak level 65.4 %
Extraction speed 4.3 X
Track quality 100.0 %
Test CRC 3EA19C89
Copy CRC 3EA19C89
Track not present in AccurateRip database
Copy OK

None of the tracks are present in the AccurateRip database

No errors occurred

End of status report

==== Log checksum 5274791FDF7EBB306FBBE2B49CDD1A68B079202F51E6AAD6341F9ADCC3BA778A ====

Lee Marrow - Greatest Hits & Remixes (2017)
Thanks to the Original customer.

Lee Marrow – Greatest Hits & Remixes (2017) Download, Warez, DDL, Free, Full Album, Torrent, Legal.

Download