Lavinia Meijer – Passaggio: Ludovico Einaudi By Lavinia (2013)

Download
Lavinia Meijer - Passaggio: Ludovico Einaudi By Lavinia (2013)

Lavinia Meijer – Passaggio: Ludovico Einaudi By Lavinia (2013)
XLD | FLAC | Tracks (Cue&Log) ~ 209 Mb (incl 5%) | Mp3 (CBR320) ~ 146 Mb (incl 5%) | Scans included
Modern Classical, Contemporary, Crossover, New Age | Sony Classical | # 88883784082 | 00:57:56

Passaggio, Lavinia Meijer’s first release on Sony, is an album of the crossover music of Ludovico Einaudi, an Italian composer and pianist who encouraged the Dutch harpist to record some of his most popular pieces. The playing on this 2013 album is highly polished and appealing, and Meijer demonstrates considerable powers of concentration and precision in performances of her harp transcriptions of Einaudi’s keyboard music. Some will find Meijer’s renditions emotionally communicative and mood enhancing, and most of the credit for their effectiveness belongs to her, because Einaudi’s modal harmonies and conventional patterns tend toward a bland prettiness, or pretty blandness, that’s all of a piece. Simple melodies and repeated arpeggiated chords have the instant attraction of minimalist music, and simplicity is often a virtue in the proper context. But because one piece blurs into the next, one might be left remembering only an impression of Einaudi’s dreamlike and evanescent style, nothing more sharply defined. Sony’s recording is clear and close-up, and Meijer has presence in a fairly resonant studio space.

Review by Blair Sanderson, Allmusic.com

If you go to one of those studios where unreformed hippies serve herbal tea, coo over the healing powers of crystals, sell a pill made out of Tibetan herbs to heal your lingering back pain, and use a private Room of Silence for contemplation and yoga, they will probably be playing this CD. The match between Ludovico Einaudi and the harp is perfect, too perfect: sappy, "inspirational" music founded on a repetitive sameness of mood, coupled with the ultimate easy-listening instrument. The result is an album so relaxing, peaceful, soothing and reassuring that my ears remained fully alert, my eyelids started drooping and my brain cells attempted mass suicide.

Einaudi is a quasi-minimalist, a little too free with his material to really be given the label. He is nevertheless a big fan of endless repetition. To tell you the truth, there are some very nicely written minutes of music here. A couple moments achieve actual emotional uplift, and signal a composer who knows how to tug heartstrings. I can’t remember where they are. All eleven tracks are basically indistinguishable, and when I think about listening again to pinpoint the good parts, I wince in agony. A couple of tracks are also famous, and it’s lucky that the booklet lists them, because how would you know otherwise? "Una mattina" was on the soundtrack to The Intouchables (2011), and it’s the shortest track on the album. It’s also the best. It sounds the same as the others, but it’s shorter, and that makes it the best.

Lavinia Meijer is one of the world’s greatest harpists. I am proud to own three of her earlier albums: Philip Glass selections, Visions and Fantasies and Impromptus. She has transcribed all the works herself, with the composer’s approval. This music could not ask for a better performer. In fact, it probably could not bribe one.

Ludovico Einaudi is a very sincere composer. Unlike the painter Thomas Kinkade, Einaudi creates feel-good art out of a serious motivation to do so, and with the professional craftsmanship and skill required to pull it off. He’s very good at what he does. He says, "I find that it is unfulfilling simply to write music for music’s sake. Music has to move me emotionally and spiritually, and this is also true of the audiences I have in mind."

Many audiences have found that Einaudi’s music moves them. I can’t challenge that but I can’t join them, either. Easy-listening, "new age" music focuses on one superficial, consoling kind of uplift because it cannot handle deeper emotions or problems. Einaudi is an ascetic, a musical monk denying himself – perhaps out of fear – the right to feel anything complicated.

Truly profound uplift in art demands conflict. More obviously, if you want to feel uplifted, you have to start down. All the most "inspirational" works of music also have great moments of pain, doubt, or loss, from Beethoven’s Ninth to Mahler’s Second, from Chopin’s nocturnes to Strauss’s Four Last Songs. The first draft of this review had about a dozen more examples listed. No doubt you can think of your own. How would you feel at the end of Casablanca if there hadn’t been a war on? Who would watch Much Ado About Nothing if all that survived of it was the final dance?

This album is 57 minutes of continuous uplift. This imposes the physically impossible demand that you somehow keep feeling more and more consoled for an hour. Eventually, the sentient human rebels. Please, Mr. Einaudi, bring us darkness. Bring us sadness. Bring us wit, flirtation, despair, desperation, hopelessness, confusion, laughter, absurdity, longing, jealousy, impulsiveness, daring, calculation, fear, ecstasy, or eagerness. You need not capture them all; one or two would do. Art is the way that humans communicate with each other about the unspeakable realities of being alive, and easy-listening music is not about being alive. It is about stage-managing life to avoid any unpleasantness. It is a solution which denies the existence of a problem. It is the senseless imposition of one single mood on listeners who are capable of feeling an infinity of moods. For some people, it no doubt provides a comfort, something predictable in a troubled world. For the rest of us, Ludovico Einaudi’s music offers a generic uplift that’s inferior to the real thing, and clueless as to why we might ever need it. This is not music to heal wounds; it is music to pretend wounds do not exist. This music is numbing, insulting and delusional.

Review by Brian Reinhart, MusicWeb-International

Lavinia Meijer - Passaggio: Ludovico Einaudi By Lavinia (2013)

Ludovico Einaudi at Allmusic
Ludovico Einaudi Website
Ludovico Einaudi at Wiki
Lavinia Meijer - Passaggio: Ludovico Einaudi By Lavinia (2013)

Lavinia Meijer at Allmusic
Lavinia Meijer Website
Lavinia Meijer at Wiki

Tracklist:

01. Divenire (06:33)
02. I Giorni (05:51)
03. Oltremare (09:49)
04. Una Mattina (02:44)
05. Le Onde (04:13)
06. Dietro L’incanto (03:32)
07. Ora (06:06)
08. The Snow Prelude No. 15 (04:35)
09. Passaggio (04:15)
10. Nuvole Bianche (05:04)
11. Due Tramonti (04:27)

XLD log
X Lossless Decoder version 20130720 (144.0)

XLD extraction logfile from 2013-11-05 15:48:35 +0100

Lavinia Meijer / Lavinia Meijer – Passaggio – Einaudi By Lavinia (2013)

Used drive : OPTIARC DVD RW AD-5680H (revision 3AHB)
Media type : Pressed CD

Ripper mode : XLD Secure Ripper
Disable audio cache : OK for the drive with a cache less than 1375KiB
Make use of C2 pointers : NO
Read offset correction : 48
Max retry count : 20
Gap status : Analyzed, Appended (except HTOA)

TOC of the extracted CD
Track | Start | Length | Start sector | End sector
––––––––––––––––––––––––––––-
1 | 00:00:00 | 06:38:01 | 0 | 29850
2 | 06:38:01 | 05:54:29 | 29851 | 56429
3 | 12:32:30 | 09:54:05 | 56430 | 100984
4 | 22:26:35 | 02:48:37 | 100985 | 113621
5 | 25:14:72 | 04:19:36 | 113622 | 133082
6 | 29:34:33 | 03:36:10 | 133083 | 149292
7 | 33:10:43 | 06:11:26 | 149293 | 177143
8 | 39:21:69 | 04:38:49 | 177144 | 198042
9 | 44:00:43 | 04:19:39 | 198043 | 217506
10 | 48:20:07 | 05:08:46 | 217507 | 240652
11 | 53:28:53 | 04:27:40 | 240653 | 260717

AccurateRip Summary
Disc not found in AccurateRip DB.

All Tracks
Album gain : -3.96 dB
Peak : 0.980042
Statistics
Read error : 0
Jitter error (maybe fixed) : 0
Retry sector count : 0
Damaged sector count : 0

Track 01
Filename : /Volumes/FirewireHitachi/XLD-Output/Lavinia Meijer – Passaggio – Einaudi By Lavinia (2013) [FLAC]/01 – Divenire.flac
/Volumes/FirewireHitachi/XLD-Output/Lavinia Meijer – Passaggio – Einaudi By Lavinia (2013) [MP3 320]/01 – Divenire.mp3
/Volumes/FirewireHitachi/XLD-Output/Lavinia Meijer – Passaggio – Einaudi By Lavinia (2013) [MP3 V0]/01 – Divenire.mp3
/Volumes/FirewireHitachi/XLD-Output/Lavinia Meijer – Passaggio – Einaudi By Lavinia (2013) [MP3 V2]/01 – Divenire.mp3
Pre-gap length : 00:02:00

Track gain : -5.23 dB
Peak : 0.980011
CRC32 hash (test run) : 85BEBA9B
CRC32 hash : 85BEBA9B
CRC32 hash (skip zero) : A9D330B5
AccurateRip v1 signature : 88DFA700
AccurateRip v2 signature : 225A7009
->Track not present in AccurateRip database.
Statistics
Read error : 0
Jitter error (maybe fixed) : 0
Retry sector count : 0
Damaged sector count : 0

Track 02
Filename : /Volumes/FirewireHitachi/XLD-Output/Lavinia Meijer – Passaggio – Einaudi By Lavinia (2013) [FLAC]/02 – I Giorni.flac
/Volumes/FirewireHitachi/XLD-Output/Lavinia Meijer – Passaggio – Einaudi By Lavinia (2013) [MP3 320]/02 – I Giorni.mp3
/Volumes/FirewireHitachi/XLD-Output/Lavinia Meijer – Passaggio – Einaudi By Lavinia (2013) [MP3 V0]/02 – I Giorni.mp3
/Volumes/FirewireHitachi/XLD-Output/Lavinia Meijer – Passaggio – Einaudi By Lavinia (2013) [MP3 V2]/02 – I Giorni.mp3
Pre-gap length : 00:04:24

Track gain : -5.33 dB
Peak : 0.980042
CRC32 hash (test run) : 6265B00B
CRC32 hash : 6265B00B
CRC32 hash (skip zero) : CF74D415
AccurateRip v1 signature : D48BCF71
AccurateRip v2 signature : 5A19EF3D
->Track not present in AccurateRip database.
Statistics
Read error : 0
Jitter error (maybe fixed) : 0
Retry sector count : 0
Damaged sector count : 0

Track 03
Filename : /Volumes/FirewireHitachi/XLD-Output/Lavinia Meijer – Passaggio – Einaudi By Lavinia (2013) [FLAC]/03 – Oltremare.flac
/Volumes/FirewireHitachi/XLD-Output/Lavinia Meijer – Passaggio – Einaudi By Lavinia (2013) [MP3 320]/03 – Oltremare.mp3
/Volumes/FirewireHitachi/XLD-Output/Lavinia Meijer – Passaggio – Einaudi By Lavinia (2013) [MP3 V0]/03 – Oltremare.mp3
/Volumes/FirewireHitachi/XLD-Output/Lavinia Meijer – Passaggio – Einaudi By Lavinia (2013) [MP3 V2]/03 – Oltremare.mp3
Pre-gap length : 00:03:20

Track gain : -4.12 dB
Peak : 0.980042
CRC32 hash (test run) : 96440876
CRC32 hash : 96440876
CRC32 hash (skip zero) : 53374B72
AccurateRip v1 signature : 941B9387
AccurateRip v2 signature : 293F5102
->Track not present in AccurateRip database.
Statistics
Read error : 0
Jitter error (maybe fixed) : 0
Retry sector count : 0
Damaged sector count : 0

Track 04
Filename : /Volumes/FirewireHitachi/XLD-Output/Lavinia Meijer – Passaggio – Einaudi By Lavinia (2013) [FLAC]/04 – Una Mattina.flac
/Volumes/FirewireHitachi/XLD-Output/Lavinia Meijer – Passaggio – Einaudi By Lavinia (2013) [MP3 320]/04 – Una Mattina.mp3
/Volumes/FirewireHitachi/XLD-Output/Lavinia Meijer – Passaggio – Einaudi By Lavinia (2013) [MP3 V0]/04 – Una Mattina.mp3
/Volumes/FirewireHitachi/XLD-Output/Lavinia Meijer – Passaggio – Einaudi By Lavinia (2013) [MP3 V2]/04 – Una Mattina.mp3
Pre-gap length : 00:04:49

Track gain : -0.40 dB
Peak : 0.696564
CRC32 hash (test run) : FD34FC33
CRC32 hash : FD34FC33
CRC32 hash (skip zero) : 2498B2F9
AccurateRip v1 signature : 5913B758
AccurateRip v2 signature : E8DFAC6E
->Track not present in AccurateRip database.
Statistics
Read error : 0
Jitter error (maybe fixed) : 0
Retry sector count : 0
Damaged sector count : 0

Track 05
Filename : /Volumes/FirewireHitachi/XLD-Output/Lavinia Meijer – Passaggio – Einaudi By Lavinia (2013) [FLAC]/05 – Le Onde.flac
/Volumes/FirewireHitachi/XLD-Output/Lavinia Meijer – Passaggio – Einaudi By Lavinia (2013) [MP3 320]/05 – Le Onde.mp3
/Volumes/FirewireHitachi/XLD-Output/Lavinia Meijer – Passaggio – Einaudi By Lavinia (2013) [MP3 V0]/05 – Le Onde.mp3
/Volumes/FirewireHitachi/XLD-Output/Lavinia Meijer – Passaggio – Einaudi By Lavinia (2013) [MP3 V2]/05 – Le Onde.mp3
Pre-gap length : 00:04:11

Track gain : -1.61 dB
Peak : 0.976257
CRC32 hash (test run) : 6BB81DAC
CRC32 hash : 6BB81DAC
CRC32 hash (skip zero) : D37CD67F
AccurateRip v1 signature : B4A8D497
AccurateRip v2 signature : 30816823
->Track not present in AccurateRip database.
Statistics
Read error : 0
Jitter error (maybe fixed) : 0
Retry sector count : 0
Damaged sector count : 0

Track 06
Filename : /Volumes/FirewireHitachi/XLD-Output/Lavinia Meijer – Passaggio – Einaudi By Lavinia (2013) [FLAC]/06 – Dietro L’incanto.flac
/Volumes/FirewireHitachi/XLD-Output/Lavinia Meijer – Passaggio – Einaudi By Lavinia (2013) [MP3 320]/06 – Dietro L’incanto.mp3
/Volumes/FirewireHitachi/XLD-Output/Lavinia Meijer – Passaggio – Einaudi By Lavinia (2013) [MP3 V0]/06 – Dietro L’incanto.mp3
/Volumes/FirewireHitachi/XLD-Output/Lavinia Meijer – Passaggio – Einaudi By Lavinia (2013) [MP3 V2]/06 – Dietro L’incanto.mp3
Pre-gap length : 00:05:38

Track gain : -2.93 dB
Peak : 0.979950
CRC32 hash (test run) : 8B8FEFEB
CRC32 hash : 8B8FEFEB
CRC32 hash (skip zero) : 5A5B9E04
AccurateRip v1 signature : C441301D
AccurateRip v2 signature : AF318B58
->Track not present in AccurateRip database.
Statistics
Read error : 0
Jitter error (maybe fixed) : 0
Retry sector count : 0
Damaged sector count : 0

Track 07
Filename : /Volumes/FirewireHitachi/XLD-Output/Lavinia Meijer – Passaggio – Einaudi By Lavinia (2013) [FLAC]/07 – Ora.flac
/Volumes/FirewireHitachi/XLD-Output/Lavinia Meijer – Passaggio – Einaudi By Lavinia (2013) [MP3 320]/07 – Ora.mp3
/Volumes/FirewireHitachi/XLD-Output/Lavinia Meijer – Passaggio – Einaudi By Lavinia (2013) [MP3 V0]/07 – Ora.mp3
/Volumes/FirewireHitachi/XLD-Output/Lavinia Meijer – Passaggio – Einaudi By Lavinia (2013) [MP3 V2]/07 – Ora.mp3
Pre-gap length : 00:03:56

Track gain : -4.89 dB
Peak : 0.980042
CRC32 hash (test run) : 859D60A2
CRC32 hash : 859D60A2
CRC32 hash (skip zero) : 424DC4B7
AccurateRip v1 signature : B3EFE194
AccurateRip v2 signature : 0B28C61E
->Track not present in AccurateRip database.
Statistics
Read error : 0
Jitter error (maybe fixed) : 0
Retry sector count : 0
Damaged sector count : 0

Track 08
Filename : /Volumes/FirewireHitachi/XLD-Output/Lavinia Meijer – Passaggio – Einaudi By Lavinia (2013) [FLAC]/08 – The Snow Prelude No. 15.flac
/Volumes/FirewireHitachi/XLD-Output/Lavinia Meijer – Passaggio – Einaudi By Lavinia (2013) [MP3 320]/08 – The Snow Prelude No. 15.mp3
/Volumes/FirewireHitachi/XLD-Output/Lavinia Meijer – Passaggio – Einaudi By Lavinia (2013) [MP3 V0]/08 – The Snow Prelude No. 15.mp3
/Volumes/FirewireHitachi/XLD-Output/Lavinia Meijer – Passaggio – Einaudi By Lavinia (2013) [MP3 V2]/08 – The Snow Prelude No. 15.mp3
Pre-gap length : 00:04:34

Track gain : -1.01 dB
Peak : 0.980042
CRC32 hash (test run) : 1F8FDEF7
CRC32 hash : 1F8FDEF7
CRC32 hash (skip zero) : AAF41A5D
AccurateRip v1 signature : 339D815A
AccurateRip v2 signature : 8E2F4C57
->Track not present in AccurateRip database.
Statistics
Read error : 0
Jitter error (maybe fixed) : 0
Retry sector count : 0
Damaged sector count : 0

Track 09
Filename : /Volumes/FirewireHitachi/XLD-Output/Lavinia Meijer – Passaggio – Einaudi By Lavinia (2013) [FLAC]/09 – Passaggio.flac
/Volumes/FirewireHitachi/XLD-Output/Lavinia Meijer – Passaggio – Einaudi By Lavinia (2013) [MP3 320]/09 – Passaggio.mp3
/Volumes/FirewireHitachi/XLD-Output/Lavinia Meijer – Passaggio – Einaudi By Lavinia (2013) [MP3 V0]/09 – Passaggio.mp3
/Volumes/FirewireHitachi/XLD-Output/Lavinia Meijer – Passaggio – Einaudi By Lavinia (2013) [MP3 V2]/09 – Passaggio.mp3
Pre-gap length : 00:03:32

Track gain : -2.10 dB
Peak : 0.979950
CRC32 hash (test run) : 05279F6A
CRC32 hash : 05279F6A
CRC32 hash (skip zero) : 4ACFBBAE
AccurateRip v1 signature : 8133628B
AccurateRip v2 signature : 19BFA414
->Track not present in AccurateRip database.
Statistics
Read error : 0
Jitter error (maybe fixed) : 0
Retry sector count : 0
Damaged sector count : 0

Track 10
Filename : /Volumes/FirewireHitachi/XLD-Output/Lavinia Meijer – Passaggio – Einaudi By Lavinia (2013) [FLAC]/10 – Nuvole Bianche.flac
/Volumes/FirewireHitachi/XLD-Output/Lavinia Meijer – Passaggio – Einaudi By Lavinia (2013) [MP3 320]/10 – Nuvole Bianche.mp3
/Volumes/FirewireHitachi/XLD-Output/Lavinia Meijer – Passaggio – Einaudi By Lavinia (2013) [MP3 V0]/10 – Nuvole Bianche.mp3
/Volumes/FirewireHitachi/XLD-Output/Lavinia Meijer – Passaggio – Einaudi By Lavinia (2013) [MP3 V2]/10 – Nuvole Bianche.mp3
Pre-gap length : 00:03:58

Track gain : -3.99 dB
Peak : 0.980011
CRC32 hash (test run) : 3E81341B
CRC32 hash : 3E81341B
CRC32 hash (skip zero) : 1AD87764
AccurateRip v1 signature : 22ED2A41
AccurateRip v2 signature : E66957C7
->Track not present in AccurateRip database.
Statistics
Read error : 0
Jitter error (maybe fixed) : 0
Retry sector count : 0
Damaged sector count : 0

Track 11
Filename : /Volumes/FirewireHitachi/XLD-Output/Lavinia Meijer – Passaggio – Einaudi By Lavinia (2013) [FLAC]/11 – Due Tramonti.flac
/Volumes/FirewireHitachi/XLD-Output/Lavinia Meijer – Passaggio – Einaudi By Lavinia (2013) [MP3 320]/11 – Due Tramonti.mp3
/Volumes/FirewireHitachi/XLD-Output/Lavinia Meijer – Passaggio – Einaudi By Lavinia (2013) [MP3 V0]/11 – Due Tramonti.mp3
/Volumes/FirewireHitachi/XLD-Output/Lavinia Meijer – Passaggio – Einaudi By Lavinia (2013) [MP3 V2]/11 – Due Tramonti.mp3
Pre-gap length : 00:03:72

Track gain : -1.93 dB
Peak : 0.891327
CRC32 hash (test run) : 0377B81B
CRC32 hash : 0377B81B
CRC32 hash (skip zero) : 2E239F14
AccurateRip v1 signature : DB183A13
AccurateRip v2 signature : C0D1D8C7
->Track not present in AccurateRip database.
Statistics
Read error : 0
Jitter error (maybe fixed) : 0
Retry sector count : 0
Damaged sector count : 0

No errors occurred

End of status report

––-BEGIN XLD SIGNATURE––-
HwxJexn2CeVTJ5hixgE0JDzTNIWM2jyCznRWElRd5bavfvbWA6b3r5rTtWLIscHulTao36TLz3xYTVv.NUlarF9CimORRbFyfjWMkh0
––-END XLD SIGNATURE––-

AR log
[CUETools log; Date: 20.12.2016 22:16:59; Version: 2.1.4]
[CTDB TOCID: y90P9DpbFAeULsr5A2TG90zlMYk-] found.
Track | CTDB Status
1 | (58/58) Accurately ripped
2 | (57/58) Accurately ripped
3 | (57/58) Accurately ripped
4 | (58/58) Accurately ripped
5 | (58/58) Accurately ripped
6 | (58/58) Accurately ripped
7 | (58/58) Accurately ripped
8 | (58/58) Accurately ripped
9 | (58/58) Accurately ripped
10 | (58/58) Accurately ripped
11 | (57/58) Accurately ripped
[AccurateRip ID: 00199811-00d89938-8c0d940b] found.
Track [ CRC | V2 ] Status
01 [88dfa700|225a7009] (00+21/21) Accurately ripped
02 [d48bcf71|5a19ef3d] (00+21/21) Accurately ripped
03 [941b9387|293f5102] (00+21/21) Accurately ripped
04 [5913b758|e8dfac6e] (00+21/21) Accurately ripped
05 [b4a8d497|30816823] (00+21/21) Accurately ripped
06 [c441301d|af318b58] (00+21/21) Accurately ripped
07 [b3efe194|0b28c61e] (00+21/21) Accurately ripped
08 [339d815a|8e2f4c57] (00+21/21) Accurately ripped
09 [8133628b|19bfa414] (00+21/21) Accurately ripped
10 [22ed2a41|e66957c7] (00+21/21) Accurately ripped
11 [db183a13|c0d1d8c7] (00+21/21) Accurately ripped

Track Peak [ CRC32 ] [W/O NULL]
– 98,0 [41169E05] [BFD1ACCC]
01 98,0 [85BEBA9B] [A9D330B5]
02 98,0 [6265B00B] [CF74D415]
03 98,0 [96440876] [53374B72]
04 69,6 [FD34FC33] [2498B2F9]
05 97,6 [6BB81DAC] [D37CD67F]
06 97,9 [8B8FEFEB] [5A5B9E04]
07 98,0 [859D60A2] [424DC4B7]
08 98,0 [1F8FDEF7] [AAF41A5D]
09 97,9 [05279F6A] [4ACFBBAE]
10 98,0 [3E81341B] [1AD87764]
11 89,1 [0377B81B] [2E239F14]

DR log
foobar2000 1.2 / Dynamic Range Meter 1.1.1
log date: 2016-12-20 22:24:03

––––––––––––––––––––––––––––––––––––––––
Analyzed: Lavinia Meijer / Lavinia Meijer – Passaggio – Einaudi By Lavinia (2013)
––––––––––––––––––––––––––––––––––––––––

DR Peak RMS Duration Track
––––––––––––––––––––––––––––––––––––––––
DR10 -0.18 dB -15.05 dB 6:38 01-Divenire
DR11 -0.18 dB -15.93 dB 5:54 02-I Giorni
DR12 -0.18 dB -16.36 dB 9:54 03-Oltremare
DR11 -3.14 dB -19.31 dB 2:48 04-Una Mattina
DR12 -0.21 dB -18.37 dB 4:19 05-Le Onde
DR12 -0.18 dB -16.62 dB 3:36 06-Dietro L’incanto
DR11 -0.18 dB -14.60 dB 6:11 07-Ora
DR15 -0.18 dB -20.45 dB 4:39 08-The Snow Prelude No. 15
DR14 -0.18 dB -18.40 dB 4:20 09-Passaggio
DR11 -0.18 dB -15.84 dB 5:09 10-Nuvole Bianche
DR12 -1.00 dB -18.91 dB 4:28 11-Due Tramonti
––––––––––––––––––––––––––––––––––––––––

Number of tracks: 11
Official DR value: DR12

Samplerate: 44100 Hz
Channels: 2
Bits per sample: 16
Bitrate: 414 kbps
Codec: FLAC
================================================================================

Lavinia Meijer - Passaggio: Ludovico Einaudi By Lavinia (2013)

All thanks to original releaser

More interesting music in My Blog

Ludovico Einaudi & VA – Intouchables: Original Soundtrack (2011)

Angèle Dubeau & La Pietà – Ludovico Einaudi: Portrait (2015)

Lavinia Meijer – Passaggio: Ludovico Einaudi By Lavinia (2013) Download, Warez, DDL, Free, Full Album, Torrent, Legal.

Download