Lava – Symphonic Journey (2009)

Download
Lava - Symphonic Journey (2009)

Lava – Symphonic Journey (2009)
EAC Rip | FLAC (Img) + Cue + Log ~ 527 Mb | MP3 CBR320 ~ 178 Mb
Full Scans (JPG, 600 dpi) ~ 44 Mb | RAR 5% Recovery
Pop, Jazz | Tyden & Co #Co GTACD 8462

Lava (established 1977 in Årdal, Norway) is a Norwegian jazz-rock band, known from a series of recordings in the 1980s (Polydor Records). The initiators Per Hillestad (drums), Svein Dag Hauge (guitar) were joined by Kjell Hestetun (bass) and Stein Eriksen (keyboards) and released the jazz funk influenced album Lava (1980), with contributions from Geir Langslet (keyboards) and Olav Stedje (vocals).

When Hestetun and Eriksen left the band, the quartet Hauge, Hillestad and Langslet and bassist Rolf Graf continued releasing the album Cruisin (1981), with contributions by Per Kolstad (piano), Sigurd Køhn (saxophone) and Marius Müller (guitar), and the track «Take Your Time» became Norway and Europe hit.

Their third album was Prime Time (1982) with Egil Eldøen as new vocalist accompanied by Sidsel Endresen on one track. In addition to the regular lineup, Per Kolstad and Sigurd Køhn contributed on this album. It was followed by a tour with Randy Crawford (1983), also contributing on the album Fire (1984). This is Lavas best-selling albums and it was awarded Spellemannsprisen (1984) in the class Pop.

Later, the group released Prime Cuts (1985), Rhythm of Love (1990) and The Very Best of Lava (1996). On the next two albums Polarity (2003) and Alibi (2005), Geir Langslet was substituted by Stein Austrud (keyboards) Kåre Kolve contributed as saxophonist. The last album Symphonic Journey (2009) was recorded live with Kringkastingsorkestret at Rockefeller. Lava also collaborated with guest artists like Randy Crawford.

Lava - Symphonic Journey (2009)

Wiki | Discogs | All Music

***************

Lava - Symphonic Journey (2009)

Lava - Symphonic Journey (2009)

Lava - Symphonic Journey (2009)

Track List:

01. Empty Shadows [2:50]
02. Closet [5:11]
03. The Rhythm Of Love [4:37]
04. Cover Me [4:05]
05. I Guess You Broke My Heart [6:18]
06. Shine A Little Light [4:39]
07. Aquilo Blow [6:07]
08. Breaking Away [5:34]
09. Hard Times [5:11]
10. Take Your Time [4:28]
11. Losing You [4:18]
12. Journey [6:42]
13. Transition Man [7:40]
14. You [6:41]

Personnel:
Egel Eldøen – lead vocals
Rolf Graf – bass, backing vocals
Svein Dag Hauge – guitars, backing vocals
Per Hillestad – drums, percussion
Per Kolstad – keyboards

Additional musicians:
Stein Austrud – keyboards
Kåre Kolve – saxophones
Mariann Lisland – background vocals
Per Oystein Sorensen – background vocals

EAC Log
Exact Audio Copy V1.0 beta 3 from 29. August 2011

EAC extraction logfile from 7. June 2017, 19:58

Lava / Symphonic Journey

Used drive : SlimtypeDVD A DS8A5SH Adapter: 0 ID: 0

Read mode : Secure
Utilize accurate stream : Yes
Defeat audio cache : Yes
Make use of C2 pointers : No

Read offset correction : 6
Overread into Lead-In and Lead-Out : No
Fill up missing offset samples with silence : Yes
Delete leading and trailing silent blocks : No
Null samples used in CRC calculations : Yes
Used interface : Installed external ASPI interface

Used output format : User Defined Encoder
Selected bitrate : 320 kBit/s
Quality : High
Add ID3 tag : No
Command line compressor : C:Program Files (x86)Exact Audio CopyFlacflac.exe
Additional command line options : -V -8 -T "Date=%year%" -T "Genre=%genre%" %source%

TOC of the extracted CD

Track | Start | Length | Start sector | End sector
––––––––––––––––––––––––––––-
1 | 0:00.00 | 2:50.07 | 0 | 12756
2 | 2:50.07 | 5:11.13 | 12757 | 36094
3 | 8:01.20 | 4:36.70 | 36095 | 56864
4 | 12:38.15 | 4:04.68 | 56865 | 75232
5 | 16:43.08 | 6:18.17 | 75233 | 103599
6 | 23:01.25 | 4:38.70 | 103600 | 124519
7 | 27:40.20 | 6:06.67 | 124520 | 152036
8 | 33:47.12 | 5:33.44 | 152037 | 177055
9 | 39:20.56 | 5:11.14 | 177056 | 200394
10 | 44:31.70 | 4:28.09 | 200395 | 220503
11 | 49:00.04 | 4:18.08 | 220504 | 239861
12 | 53:18.12 | 6:41.57 | 239862 | 269993
13 | 59:59.69 | 7:40.00 | 269994 | 304493
14 | 67:39.69 | 6:40.53 | 304494 | 334546

Range status and errors

Selected range

Filename D:My MusicLava – 2009 Symphonic JourneyLava – Symphonic Journey.wav

Peak level 100.0 %
Extraction speed 2.1 X
Range quality 100.0 %
Test CRC 517744A7
Copy CRC 517744A7
Copy OK

No errors occurred

AccurateRip summary

Track 1 accurately ripped (confidence 2) [A0D5FBB3] (AR v2)
Track 2 accurately ripped (confidence 2) [F5B0F996] (AR v2)
Track 3 accurately ripped (confidence 2) [A5CCE70E] (AR v2)
Track 4 accurately ripped (confidence 2) [0236C3CF] (AR v2)
Track 5 accurately ripped (confidence 2) [E9936CB9] (AR v2)
Track 6 accurately ripped (confidence 2) [E1188ABA] (AR v2)
Track 7 accurately ripped (confidence 2) [9D810EB0] (AR v2)
Track 8 accurately ripped (confidence 2) [2F6187A6] (AR v2)
Track 9 accurately ripped (confidence 2) [37C1473A] (AR v2)
Track 10 accurately ripped (confidence 2) [BA4E7245] (AR v2)
Track 11 accurately ripped (confidence 2) [2DE4A84F] (AR v2)
Track 12 accurately ripped (confidence 2) [B57E4FA1] (AR v2)
Track 13 accurately ripped (confidence 2) [C73562EF] (AR v2)
Track 14 accurately ripped (confidence 2) [6BE3F40A] (AR v2)

All tracks accurately ripped

End of status report

==== Log checksum 92B539A3DC2AA7EDFD96ABC08DB8D013AA582DB2126DB30A0747321C9C2CB918 ====

DR Log
foobar2000 1.2.6 / Dynamic Range Meter 1.1.1
log date: 2017-07-12 01:57:39

––––––––––––––––––––––––––––––––––––––––
Analyzed: / Symphonic Journey
––––––––––––––––––––––––––––––––––––––––

DR Peak RMS Duration Track
––––––––––––––––––––––––––––––––––––––––
DR9 -0.06 dB -11.38 dB 2:50 01-Empty Shadows
DR8 0.00 dB -9.79 dB 5:11 02-Closet
DR7 -0.01 dB -9.71 dB 4:37 03-The Rhythm Of Love
DR8 0.00 dB -9.20 dB 4:05 04-Cover Me
DR7 -0.40 dB -9.58 dB 6:18 05-I Guess You Broke My Heart
DR8 0.00 dB -9.14 dB 4:39 06-Shine A Little Light
DR8 0.00 dB -9.25 dB 6:07 07-Aquilo Blow
DR8 -0.47 dB -11.81 dB 5:34 08-Breaking Away
DR9 0.00 dB -10.30 dB 5:11 09-Hard Times
DR9 0.00 dB -10.52 dB 4:28 10-Take Your Time
DR8 -0.60 dB -12.54 dB 4:18 11-Losing You
DR7 -0.07 dB -10.33 dB 6:42 12-Journey
DR8 0.00 dB -9.57 dB 7:40 13-Transition Man
DR8 0.00 dB -10.42 dB 6:41 14-You
––––––––––––––––––––––––––––––––––––––––

Number of tracks: 14
Official DR value: DR8

Samplerate: 44100 Hz
Channels: 2
Bits per sample: 16
Bitrate: 945 kbps
Codec: FLAC
================================================================================

CUETools Log
[CUETools log; Date: 12.07.2017 1:57:45; Version: 2.1.5]
[CTDB TOCID: RRuqYbfHYdA8rS2XcZ8OsGs_0L4-] found.
Track | CTDB Status
1 | (1/1) Accurately ripped
2 | (1/1) Accurately ripped
3 | (1/1) Accurately ripped
4 | (1/1) Accurately ripped
5 | (1/1) Accurately ripped
6 | (1/1) Accurately ripped
7 | (1/1) Accurately ripped
8 | (1/1) Accurately ripped
9 | (1/1) Accurately ripped
10 | (1/1) Accurately ripped
11 | (1/1) Accurately ripped
12 | (1/1) Accurately ripped
13 | (1/1) Accurately ripped
14 | (1/1) Accurately ripped
[AccurateRip ID: 00233777-017f9892-a3116c0e] found.
Track [ CRC | V2 ] Status
01 [8b9937c6|a0d5fbb3] (0+2/2) Accurately ripped
02 [e2ee023d|f5b0f996] (0+2/2) Accurately ripped
03 [accdfd6c|a5cce70e] (0+2/2) Accurately ripped
04 [2424858b|0236c3cf] (0+2/2) Accurately ripped
05 [7dec7598|e9936cb9] (0+2/2) Accurately ripped
06 [d03b669f|e1188aba] (0+2/2) Accurately ripped
07 [1090aa36|9d810eb0] (0+2/2) Accurately ripped
08 [95ae8ef8|2f6187a6] (0+2/2) Accurately ripped
09 [ee360776|37c1473a] (0+2/2) Accurately ripped
10 [a27c5484|ba4e7245] (0+2/2) Accurately ripped
11 [2310ac1c|2de4a84f] (0+2/2) Accurately ripped
12 [e340d470|b57e4fa1] (0+2/2) Accurately ripped
13 [05c3ccaa|c73562ef] (0+2/2) Accurately ripped
14 [86adb1c6|6be3f40a] (0+2/2) Accurately ripped

Track Peak [ CRC32 ] [W/O NULL] [ LOG ]
– 100,0 [517744A7] [B0D0A155] CRC32
01 99,2 [34B3783F] [FEDCC198]
02 100,0 [9872A719] [740D7B6F]
03 99,9 [EE0FED8D] [6BACD398]
04 100,0 [566F9BFD] [34B9430D]
05 95,5 [061FF372] [4E15527A]
06 100,0 [D2975E9E] [5D5DF6BC]
07 100,0 [678F41E4] [CCD074AF]
08 94,7 [07ABA852] [889DB58D]
09 100,0 [47153ECA] [8EBF2D36]
10 100,0 [007BB33D] [EF22199B]
11 93,3 [922DE03B] [DB2CEC9B]
12 99,1 [69F6C07E] [A27CD0F8]
13 100,0 [25B51040] [6BB467BA]
14 100,0 [FBD8B3E6] [EB7092B4]

Lava - Symphonic Journey (2009)

See also:
Lava – Lava (1980) {2016, Limited Reissue, Remastered}
Lava – The Rhythm Of Love (1990) {2017, Limited Reissue, Remastered}
Lava – Polarity (2003)
Lava – Alibi (2005)

All thanks go to kolushew

>>> My Blog <<<

Download from icerbox.com:

Lava – Symphonic Journey (2009) Download, Warez, DDL, Free, Full Album, Torrent, Legal.

Download