Latin Quarter – Long Pig (1993)

Download
Latin Quarter - Long Pig (1993)

Latin Quarter – Long Pig (1993)
EAC Rip | FLAC (Img) + Cue + Log ~ 323 Mb | MP3 CBR320 ~ 121 Mb
Full Scans (JPG, 600 dpi) ~ 83 Mb | RAR 5% Recovery
Alternative/Indie Rock, Folk, World | Cloud Nine Records #CLD 9108 2

When Latin Quarter disbanded in 1990, they left behind three fine studio albums and a compilation of hits, and odds and ends. Three years later, out of the blue, came this new release by the band, now slimmed down to guitarist/vocalist Steve Skaith, guitarist Richard Wright, and lyricist Mike Jones. Unfortunately, the spark that seemed to ignite the band in the past had left with the former band members. Skaith’s melodies aren’t as memorable, and the overall mood of the album is darker. It doesn’t help that some of the nicer moments on the album resemble their past glories. Jones’ lyrics are as biting as ever, and there are some gems to be found here, including "Bitter To The South," "Phil Ochs," and "Desert Rose" (featuring a guest appearance from former member Yona Dunsford). The world rhythms are more noticeable than before, especially on the African flavored "Graceland"-influenced "Church On Fire." Overall, the album seems to be one-dimensional, with all the songs blending into one another. And did I say that Skaith’s melodies just aren’t as memorable? Though this is not a complete letdown, it does not scale the heights that the band is certainly capable of. Perhaps they just spoiled us before?

~ Steve "Spaz" Schnee, All Music
Website | Wiki | Discogs | All Music

***************

Latin Quarter - Long Pig (1993)

Latin Quarter - Long Pig (1993)

Track List:

01. The Long Pig [4:24]
02. A Better Helter Skelter [3:29]
03. King For a Day [3:29]
04. Bitter To The South [3:55]
05. Phil Ochs [4:46]
06. More Than A Trace [3:46]
07. The Desert Rose [4:13]
08. Contention City [4:17]
09. The Hoopoe [3:33]
10. Church On Fire [3:32]
11. Coming Down To Pray [3:45]
12. Like A Miracle [4:50]
13. Faith And Reason [2:25]

Personnel:
Steve Skaith – vocals, guitar, keyboards, programming
Richard Wright – vocals, guitar, keyboards, programming
Mike Jones – lyrics, remote control

EAC Log
Exact Audio Copy V0.99 prebeta 5 from 4. May 2009

Отчёт EAC об извлечении, выполненном 15. июля 2011, 18:59

Latin Quarter / Long Pig

Дисковод: PIONEER DVD-RW DVR-215D Adapter: 1 ID: 1

Режим чтения : Достоверность
Использование точного потока : Да
Отключение кэша аудио : Да
Использование указателей C2 : Нет

Коррекция смещения при чтении : 48
Способность читать области Lead-in и Lead-out : Нет
Заполнение пропущенных сэмплов тишиной : Да
Удаление блоков с тишиной в начале и конце : Нет
При вычислениях CRC использовались нулевые сэмплы : Да
Интерфейс : Встроенный Win32-интерфейс для Win NT/2000

Выходной формат : Пользовательский кодировщик
Выбранный битрейт : 1024 kBit/s
Качество : Высокий
Добавление ID3-тэга : Нет
Утилита сжатия : H:Program FilesExact Audio CopyFLACFLAC.EXE
Дополнительные параметры : -6 -V -T "ARTIST=%a" -T "TITLE=%t" -T "ALBUM=%g" -T "DATE=%y" -T "TRACKNUMBER=%n" -T "GENRE=%m" -T "COMMENT=%e" %s -o %d

TOC извлечённого CD

Трек | Старт | Длительность | Начальный сектор | Конечный сектор
––––––––––––––––––––––––––––––––––-
1 | 0:00.00 | 4:24.25 | 0 | 19824
2 | 4:24.25 | 3:28.40 | 19825 | 35464
3 | 7:52.65 | 3:29.07 | 35465 | 51146
4 | 11:21.72 | 3:54.60 | 51147 | 68756
5 | 15:16.57 | 4:46.35 | 68757 | 90241
6 | 20:03.17 | 3:45.65 | 90242 | 107181
7 | 23:49.07 | 4:13.03 | 107182 | 126159
8 | 28:02.10 | 4:16.57 | 126160 | 145416
9 | 32:18.67 | 3:32.63 | 145417 | 161379
10 | 35:51.55 | 3:32.30 | 161380 | 177309
11 | 39:24.10 | 3:44.67 | 177310 | 194176
12 | 43:09.02 | 4:49.50 | 194177 | 215901
13 | 47:58.52 | 2:24.58 | 215902 | 226759

Характеристики диапазона извлечения и сообщения об ошибках

Выбранный диапазон

Имя файла L:Audio LosslessLatin Quarter. 1993 Long PigLatin Quarter – Long Pig.wav

Пиковый уровень 95.5 %
Качество диапазона 99.9 %
CRC теста D2030FF1
CRC копии D2030FF1
Копирование… OK

Ошибок не произошло

AccurateRip: сводка

Трек 1 точное извлечение (доверие 18) [CFA1857C]
Трек 2 точное извлечение (доверие 18) [F411CFA1]
Трек 3 точное извлечение (доверие 18) [286D17D7]
Трек 4 точное извлечение (доверие 18) [63E7B026]
Трек 5 точное извлечение (доверие 18) [99530A24]
Трек 6 точное извлечение (доверие 18) [541EBD7A]
Трек 7 точное извлечение (доверие 18) [362300EF]
Трек 8 точное извлечение (доверие 18) [60065C44]
Трек 9 точное извлечение (доверие 17) [7A4A23C1]
Трек 10 точное извлечение (доверие 17) [910C8119]
Трек 11 точное извлечение (доверие 17) [A6E94BD9]
Трек 12 точное извлечение (доверие 16) [55F95E22]
Трек 13 точное извлечение (доверие 17) [496356EC]

Все треки извлечены точно

Конец отчёта

DR Log
foobar2000 1.2.6 / Dynamic Range Meter 1.1.1
log date: 2017-07-06 15:35:39

––––––––––––––––––––––––––––––––––––––––
Analyzed: Latin Quarter / Long Pig
––––––––––––––––––––––––––––––––––––––––

DR Peak RMS Duration Track
––––––––––––––––––––––––––––––––––––––––
DR12 -1.39 dB -16.93 dB 4:24 01-The Long Pig
DR13 -2.41 dB -16.62 dB 3:29 02-A Better Helter Skelter
DR13 -1.15 dB -17.35 dB 3:29 03-King For a Day
DR11 -2.02 dB -16.17 dB 3:55 04-Bitter To The South
DR13 -0.39 dB -15.15 dB 4:46 05-Phil Ochs
DR12 -2.93 dB -17.56 dB 3:46 06-More Than A Trace
DR13 -1.18 dB -16.41 dB 4:13 07-The Desert Rose
DR14 -0.57 dB -17.96 dB 4:17 08-Contention City
DR13 -0.81 dB -18.20 dB 3:33 09-The Hoopoe
DR12 -1.84 dB -16.97 dB 3:32 10-Church On Fire
DR14 -1.14 dB -17.57 dB 3:45 11-Coming Down To Pray
DR12 -1.28 dB -17.17 dB 4:50 12-Like A Miracle
DR14 -1.26 dB -19.76 dB 2:25 13-Faith And Reason
––––––––––––––––––––––––––––––––––––––––

Number of tracks: 13
Official DR value: DR13

Samplerate: 44100 Hz
Channels: 2
Bits per sample: 16
Bitrate: 854 kbps
Codec: FLAC
================================================================================

CUETools Log
[CUETools log; Date: 09.07.2017 20:29:22; Version: 2.1.5]
[CTDB TOCID: tpwIbISS195ZFVrQEnj_nB3lPoQ-] found.
Track | CTDB Status
1 | (33/34) Accurately ripped
2 | (33/34) Accurately ripped
3 | (33/34) Accurately ripped
4 | (33/34) Accurately ripped
5 | (33/34) Accurately ripped
6 | (33/34) Accurately ripped
7 | (33/34) Accurately ripped
8 | (33/34) Accurately ripped
9 | (33/34) Accurately ripped
10 | (33/34) Accurately ripped
11 | (33/34) Accurately ripped
12 | (33/34) Accurately ripped
13 | (34/34) Accurately ripped
[AccurateRip ID: 0018b70c-00f6e2a6-b30bcf0d] found.
Track [ CRC | V2 ] Status
01 [cfa1857c|c0a92669] (20+22/42) Accurately ripped
02 [f411cfa1|76da326b] (20+22/42) Accurately ripped
03 [286d17d7|be37cd2f] (20+22/42) Accurately ripped
04 [63e7b026|4ae4ddf2] (20+22/42) Accurately ripped
05 [99530a24|8515b4c7] (20+22/42) Accurately ripped
06 [541ebd7a|ccd345ef] (20+22/42) Accurately ripped
07 [362300ef|b865c548] (20+22/42) Accurately ripped
08 [60065c44|1a970261] (20+22/42) Accurately ripped
09 [7a4a23c1|4145bb4a] (19+22/41) Accurately ripped
10 [910c8119|7d8558ee] (19+22/41) Accurately ripped
11 [a6e94bd9|6a2450e9] (19+22/41) Accurately ripped
12 [55f95e22|326a0883] (18+22/40) Accurately ripped
13 [496356ec|4229efc7] (19+22/41) Accurately ripped

Track Peak [ CRC32 ] [W/O NULL] [ LOG ]
– 95,5 [D2030FF1] [3AF24264] CRC32
01 85,2 [0211B217] [9ED5B99C]
02 75,7 [72CEE30C] [88194341]
03 87,6 [B6F12649] [990B8D00]
04 79,2 [9476D74D] [1483F520]
05 95,5 [965C96FC] [7DB1A463]
06 71,3 [0D0FC6B1] [0B312409]
07 87,2 [69376CBE] [91F30728]
08 93,6 [211747B7] [FC1145A5]
09 91,1 [8A59F029] [2A8CE9A2]
10 80,8 [9B1D1825] [58121D24]
11 87,6 [0370E1ED] [AD6486D6]
12 86,3 [FCB4B4DA] [39206A1A]
13 86,5 [292290F6] [90E48D52]

Latin Quarter - Long Pig (1993)

All thanks go to Mawrix

>>> Latin Quarter in my Blog <<<

Download from icerbox.com:

Latin Quarter – Long Pig (1993) Download, Warez, DDL, Free, Full Album, Torrent, Legal.

Download