La Simphonie Du Marais, Hugo Reyne – Rameau: Concerts mis en simphonie (2010)

Download
La Simphonie Du Marais, Hugo Reyne - Rameau: Concerts mis en simphonie (2010)

La Simphonie Du Marais, Hugo Reyne – Rameau: Concerts mis en simphonie (2010)
XLD | FLAC (image+.cue, log) | Covers Included | 71:30 | 433 MB
Genre: Classical | Label: Vendee | Catalog: 605006

These "concerts mis en simphonie" are Jean-Philippe Rameau’s Pièces de clavecin en concert of 1741, orchestrated for strings and winds (but no harpsichord) by Hugo Reyne, flutist and director of the historical-instrument group La Simphonie du Marais. Rameau’s originals are for violin, viola da gamba, and harpsichord, but unlike in an Italian trio sonata or accompanied sonata the harpsichord is at the center of the group. The violin and gamba are accompanimental and can optionally be replaced with other instruments. The balances Rameau obtains between his idiosyncratic keyboard language and the rest of the chamber group is lost here, but the arrangements nevertheless work surprisingly well. The fact of the matter is that Reyne is an impressive Rameau interpreter with a feel for the odd twists and turns his music takes. Almost every movement has one of Rameau’s more or less quizzical titles, some of them referring to individuals in his circle and others to more abstract concepts ("L’indiscrète"). Each of these is verbally announced on the disc itself, and the excellent notes, apparently by Reyne (they are uncredited), go into enough detail to bring to life some of the expectations a listener of Rameau’s time would have brought to the music. Further liberties are taken with the concluding Gavotte et six doubles (track 17), based on those used by conductor Otto Klemperer in his 1968 recording of the work. The recording has something of the quality of being all over the map. Reyne’s explanation for why he decided to orchestrate the work goes off in several different directions; a chamber orchestra maintained by La Pouplinière had the same composition, the wind colors seem to fit the original music, and orchestration somehow revives an unspecified "parallel between music and painting." It may or may not work for the individual listener, but few will experience the music as a distortion of Rameau’s spirit.

AllMusic

La Simphonie Du Marais, Hugo Reyne - Rameau: Concerts mis en simphonie (2010)

Track List:

1. Premier concert, for harpsichord, violin (or flute) & viola da gamba (or second violin): La Coulicam
2. La Livri
3. Le Vézinet
4. Deuxième concert, for harpsichord, violin (or flute) & viola da gamba (or second violin): La Laborde
5. La Boucon
6. LAgaçante
7. 1st & 2nd
8. Troisième concert, for harpsichord, violin (or flute) & viola da gamba (or second violin): La Lapopl
9. La Timide
10. 1st & 2nd
11. Quatrième concert, for harpsichord, violin (or flute) & viola da gamba (or second violin): La Pantom
12. LIndiscr
13. La Rameau
14. Cinquième concert, for harpsichord, violin (or flute) & viola da gamba (or second violin): La Forque
15. La Cupis
16. La Marais
17. Gavotte and Doubles (6), for harpsichord in A minor (Nouvelles suites

Performers:
La Simphonie Du Marais
Hugo Reyne, conductor

XLD Log
X Lossless Decoder version 20141129a (148.2)
XLD extraction logfile from 2017-02-03 15:09:15 +0100
Hugo Reyne: La Simphonie Du Marais / Rameau – Concerts mis en Simphonie – Reyne
Used drive : MATSHITA DVD-R UJ-898 (revision HC10)
Media type : Pressed CD
Ripper mode : XLD Secure Ripper
Disable audio cache : OK for the drive with a cache less than 1375KiB
Make use of C2 pointers : NO
Read offset correction : 102
Max retry count : 20
Gap status : Analyzed, Appended

TOC of the extracted CD
Track | Start | Length | Start sector | End sector
––––––––––––––––––––––––––––-
1 | 00:00:00 | 03:15:47 | 0 | 14671
2 | 03:15:47 | 02:57:46 | 14672 | 27992
3 | 06:13:18 | 03:26:22 | 27993 | 43464
4 | 09:39:40 | 05:35:65 | 43465 | 68654
5 | 15:15:30 | 05:25:18 | 68655 | 93047
6 | 20:40:48 | 02:24:18 | 93048 | 103865
7 | 23:04:66 | 04:20:49 | 103866 | 123414
8 | 27:25:40 | 03:27:30 | 123415 | 138969
9 | 30:52:70 | 05:43:26 | 138970 | 164720
10 | 36:36:21 | 02:38:73 | 164721 | 176643
11 | 39:15:19 | 04:29:70 | 176644 | 196888
12 | 43:45:14 | 01:31:19 | 196889 | 203732
13 | 45:16:33 | 04:25:67 | 203733 | 223674
14 | 49:42:25 | 04:25:33 | 223675 | 243582
15 | 54:07:58 | 06:35:38 | 243583 | 273245
16 | 60:43:21 | 02:27:22 | 273246 | 284292
17 | 63:10:43 | 08:19:59 | 284293 | 321776

AccurateRip Summary (DiscID: 00293d35-020effe8-1910c211)
Track 01 : OK (v1+v2, confidence 6/6)
Track 02 : OK (v1+v2, confidence 6/6)
Track 03 : OK (v1+v2, confidence 6/6)
Track 04 : OK (v1+v2, confidence 6/6)
Track 05 : OK (v1+v2, confidence 6/6)
Track 06 : OK (v1+v2, confidence 6/6)
Track 07 : OK (v1+v2, confidence 6/6)
Track 08 : OK (v1+v2, confidence 6/6)
Track 09 : OK (v1+v2, confidence 6/6)
Track 10 : OK (v1+v2, confidence 6/6)
Track 11 : OK (v1+v2, confidence 6/6)
Track 12 : OK (v1+v2, confidence 6/6)
Track 13 : OK (v1+v2, confidence 6/6)
Track 14 : OK (v1+v2, confidence 6/6)
Track 15 : OK (v1+v2, confidence 6/6)
Track 16 : OK (v1+v2, confidence 6/6)
Track 17 : OK (v1+v2, confidence 5/5)

->All tracks accurately ripped.

All Tracks

Filename : /Users/loicchahine/Documents/RameauReyneConcerts/Rameau – Concerts mis en Simphonie – Reyne.flac
CRC32 hash : 9E180E47
CRC32 hash (skip zero) : 9F1C2269
Statistics
Read error : 0
Jitter error (maybe fixed) : 0
Retry sector count : 0
Damaged sector count : 0

Track 01
Pre-gap length : 00:02:00
CRC32 hash : DA4D5A52
CRC32 hash (skip zero) : 60F6AB26
AccurateRip v1 signature : 0874D7BA
AccurateRip v2 signature : 6A437BE2
->Accurately ripped (v1+v2, confidence 3+3/6)
Statistics
Read error : 0
Jitter error (maybe fixed) : 0
Retry sector count : 0
Damaged sector count : 0

Track 02
CRC32 hash : EEE973D6
CRC32 hash (skip zero) : 6FA9D526
AccurateRip v1 signature : 0FF83F85
AccurateRip v2 signature : 1C634211
->Accurately ripped (v1+v2, confidence 3+3/6)
Statistics
Read error : 0
Jitter error (maybe fixed) : 0
Retry sector count : 0
Damaged sector count : 0

Track 03
CRC32 hash : 5B70FDEE
CRC32 hash (skip zero) : A9110850
AccurateRip v1 signature : FFC77A97
AccurateRip v2 signature : 98C6A1EC
->Accurately ripped (v1+v2, confidence 3+3/6)
Statistics
Read error : 0
Jitter error (maybe fixed) : 0
Retry sector count : 0
Damaged sector count : 0

Track 04
CRC32 hash : E5B25273
CRC32 hash (skip zero) : 25379705
AccurateRip v1 signature : 5E5DD71B
AccurateRip v2 signature : 6E2071A8
->Accurately ripped (v1+v2, confidence 3+3/6)
Statistics
Read error : 0
Jitter error (maybe fixed) : 0
Retry sector count : 0
Damaged sector count : 0

Track 05
CRC32 hash : 3F09277B
CRC32 hash (skip zero) : 78217A8D
AccurateRip v1 signature : 2128B346
AccurateRip v2 signature : FA741915
->Accurately ripped (v1+v2, confidence 3+3/6)
Statistics
Read error : 0
Jitter error (maybe fixed) : 0
Retry sector count : 0
Damaged sector count : 0

Track 06
CRC32 hash : 97940EBE
CRC32 hash (skip zero) : 995B7F5F
AccurateRip v1 signature : 493AC1C1
AccurateRip v2 signature : C516029E
->Accurately ripped (v1+v2, confidence 3+3/6)
Statistics
Read error : 0
Jitter error (maybe fixed) : 0
Retry sector count : 0
Damaged sector count : 0

Track 07
CRC32 hash : DB97D06C
CRC32 hash (skip zero) : FB8965D5
AccurateRip v1 signature : 80DCE3A2
AccurateRip v2 signature : E6526E0F
->Accurately ripped (v1+v2, confidence 3+3/6)
Statistics
Read error : 0
Jitter error (maybe fixed) : 0
Retry sector count : 0
Damaged sector count : 0

Track 08
CRC32 hash : 043CE4DD
CRC32 hash (skip zero) : 8C43E440
AccurateRip v1 signature : CC99A489
AccurateRip v2 signature : F9123306
->Accurately ripped (v1+v2, confidence 3+3/6)
Statistics
Read error : 0
Jitter error (maybe fixed) : 0
Retry sector count : 0
Damaged sector count : 0

Track 09
CRC32 hash : 323338D8
CRC32 hash (skip zero) : FBB6F0CE
AccurateRip v1 signature : C50CADA7
AccurateRip v2 signature : 1EF605E9
->Accurately ripped (v1+v2, confidence 3+3/6)
Statistics
Read error : 0
Jitter error (maybe fixed) : 0
Retry sector count : 0
Damaged sector count : 0

Track 10
CRC32 hash : 3A5DE5C5
CRC32 hash (skip zero) : E776D306
AccurateRip v1 signature : FFA82164
AccurateRip v2 signature : 2B923315
->Accurately ripped (v1+v2, confidence 3+3/6)
Statistics
Read error : 0
Jitter error (maybe fixed) : 0
Retry sector count : 0
Damaged sector count : 0

Track 11
CRC32 hash : 42BCC49E
CRC32 hash (skip zero) : D90039CE
AccurateRip v1 signature : FDBC85CA
AccurateRip v2 signature : F4CE7197
->Accurately ripped (v1+v2, confidence 3+3/6)
Statistics
Read error : 0
Jitter error (maybe fixed) : 0
Retry sector count : 0
Damaged sector count : 0

Track 12
CRC32 hash : 01C215A0
CRC32 hash (skip zero) : F0FDEE9F
AccurateRip v1 signature : 2B416833
AccurateRip v2 signature : AD0B814C
->Accurately ripped (v1+v2, confidence 3+3/6)
Statistics
Read error : 0
Jitter error (maybe fixed) : 0
Retry sector count : 0
Damaged sector count : 0

Track 13
CRC32 hash : 9106EB6D
CRC32 hash (skip zero) : 55663413
AccurateRip v1 signature : 9BAEE138
AccurateRip v2 signature : 091E9C78
->Accurately ripped (v1+v2, confidence 3+3/6)
Statistics
Read error : 0
Jitter error (maybe fixed) : 0
Retry sector count : 0
Damaged sector count : 0

Track 14
CRC32 hash : A4A1777B
CRC32 hash (skip zero) : 1C5D4120
AccurateRip v1 signature : 70E7481D
AccurateRip v2 signature : B2A4AB7B
->Accurately ripped (v1+v2, confidence 3+3/6)
Statistics
Read error : 0
Jitter error (maybe fixed) : 0
Retry sector count : 0
Damaged sector count : 0

Track 15
CRC32 hash : 1CC715FA
CRC32 hash (skip zero) : 50DB51C6
AccurateRip v1 signature : 14808B3C
AccurateRip v2 signature : 27A94F90
->Accurately ripped (v1+v2, confidence 3+3/6)
Statistics
Read error : 0
Jitter error (maybe fixed) : 0
Retry sector count : 0
Damaged sector count : 0

Track 16
CRC32 hash : 3EB5C272
CRC32 hash (skip zero) : 020E1FF7
AccurateRip v1 signature : B9166062
AccurateRip v2 signature : 599259CE
->Accurately ripped (v1+v2, confidence 3+3/6)
Statistics
Read error : 0
Jitter error (maybe fixed) : 0
Retry sector count : 0
Damaged sector count : 0

Track 17
CRC32 hash : 9FE74766
CRC32 hash (skip zero) : 49775C43
AccurateRip v1 signature : E8A03BE9
AccurateRip v2 signature : 13B26489
->Accurately ripped (v1+v2, confidence 3+2/5)
Statistics
Read error : 0
Jitter error (maybe fixed) : 0
Retry sector count : 0
Damaged sector count : 0

No errors occurred
End of status report

CUETools Log
[CUETools log; Date: 14.02.2017 11:07:03; Version: 2.1.5]
[CTDB TOCID: RPYS_wLr4BmuHyS86lvp0WItK8U-] found.
Track | CTDB Status
1 | (3/3) Accurately ripped
2 | (3/3) Accurately ripped
3 | (3/3) Accurately ripped
4 | (3/3) Accurately ripped
5 | (3/3) Accurately ripped
6 | (3/3) Accurately ripped
7 | (3/3) Accurately ripped
8 | (3/3) Accurately ripped
9 | (3/3) Accurately ripped
10 | (3/3) Accurately ripped
11 | (3/3) Accurately ripped
12 | (3/3) Accurately ripped
13 | (3/3) Accurately ripped
14 | (3/3) Accurately ripped
15 | (3/3) Accurately ripped
16 | (3/3) Accurately ripped
17 | (3/3) Accurately ripped
[AccurateRip ID: 00293d35-020effe8-1910c211] found.
Track [ CRC | V2 ] Status
01 [0874d7ba|6a437be2] (3+3/6) Accurately ripped
02 [0ff83f85|1c634211] (3+3/6) Accurately ripped
03 [ffc77a97|98c6a1ec] (3+3/6) Accurately ripped
04 [5e5dd71b|6e2071a8] (3+3/6) Accurately ripped
05 [2128b346|fa741915] (3+3/6) Accurately ripped
06 [493ac1c1|c516029e] (3+3/6) Accurately ripped
07 [80dce3a2|e6526e0f] (3+3/6) Accurately ripped
08 [cc99a489|f9123306] (3+3/6) Accurately ripped
09 [c50cada7|1ef605e9] (3+3/6) Accurately ripped
10 [ffa82164|2b923315] (3+3/6) Accurately ripped
11 [fdbc85ca|f4ce7197] (3+3/6) Accurately ripped
12 [2b416833|ad0b814c] (3+3/6) Accurately ripped
13 [9baee138|091e9c78] (3+3/6) Accurately ripped
14 [70e7481d|b2a4ab7b] (3+3/6) Accurately ripped
15 [14808b3c|27a94f90] (3+3/6) Accurately ripped
16 [b9166062|599259ce] (3+3/6) Accurately ripped
17 [e8a03be9|13b26489] (3+2/5) Accurately ripped

Track Peak [ CRC32 ] [W/O NULL]
– 99,6 [9E180E47] [9F1C2269]
01 90,7 [DA4D5A52] [60F6AB26]
02 71,4 [EEE973D6] [6FA9D526]
03 77,0 [5B70FDEE] [A9110850]
04 61,9 [E5B25273] [25379705]
05 60,5 [3F09277B] [78217A8D]
06 99,6 [97940EBE] [995B7F5F]
07 75,2 [DB97D06C] [FB8965D5]
08 91,2 [043CE4DD] [8C43E440]
09 84,9 [323338D8] [FBB6F0CE]
10 71,8 [3A5DE5C5] [E776D306]
11 80,6 [42BCC49E] [D90039CE]
12 49,7 [01C215A0] [F0FDEE9F]
13 97,3 [9106EB6D] [55663413]
14 80,2 [A4A1777B] [1C5D4120]
15 57,8 [1CC715FA] [50DB51C6]
16 74,0 [3EB5C272] [020E1FF7]
17 80,5 [9FE74766] [49775C43]

Thanks to the Original ripper (unknown)!

Download:

La Simphonie Du Marais, Hugo Reyne – Rameau: Concerts mis en simphonie (2010) Download, Warez, DDL, Free, Full Album, Torrent, Legal.

Download