La Petite Bande, Sigiswald Kuijken – Vivaldi: Le Quattro Stagioni (The Four Seasons) (2007)

Download
La Petite Bande, Sigiswald Kuijken - Vivaldi: Le Quattro Stagioni (The Four Seasons) (2007)

La Petite Bande, Sigiswald Kuijken – Vivaldi: Le Quattro Stagioni (The Four Seasons) (2007)
EAC | FLAC (log,tracks+cue) -> 317 Mb (5% Rec.) | Mp3 CBR320 Kbps -> 141 Mb (5% Rec.) | Scans -> 28 Mb
Classical | Label: Accent, ACC 24179 | 2007 | 0:59:13

With the sheer glut of recordings of Antonio Vivaldi’s Four Seasons on the market, it takes some special approach to make yet another recording of this chestnut seem interesting and palatable. Because Sigiswald Kuijken and his cohorts, La Petite Bande, understand this enormous problem, they have resorted to two innovative ideas: first, to perform the four concertos in a streamlined chamber version that requires only three violins, viola, cello, and harpsichord; and second, to introduce the antique violoncello da spalla (shoulder cello) in their performances, mostly for the novelty of its reedy tone and for its possible historical usage in these particular pieces. Included on this 2007 release from Accent are also the Cello Concerto in D major, RV 403, and the Trio Sonata in D minor, "La Follia," RV 63, which frame the program neatly and give the listener something extra to consider in choosing this CD over others. –Blair Sanderson

Tracklist:

Cello Concerto in D Major, RV 403
01. I. Allegro
02. II. Andante e spiritoso
03. III. Allegro

The Four Seasons, Concerto in E Major, Op. 8 No. 1, RV 269 "La Primavera" (Spring)
04. I. Allegro
05. II. Largo e pianissimo sempre
06. III. Danza pastorale: Allegro

The Four Seasons, Violin Concerto in G Minor, Op. 8, No. 2, RV 315, "L’estate" (Summer)
07. . Allegro non moto
08. I. Adagio – Presto
09. III. Presto

The Four Seasons, Violin Concerto in F Major, Op. 8, No. 3, RV 293, "L’autunno" (Autumn)
10.I. Allegro
11. II. Adagio molto
12. III. Allegro

The Four Seasons, Concerto in F Minor, Op. 8 No. 4, RV 297 "L’inverno" (Winter)
13. I. Allegro non molto
14. II. Largo
15. III. Allegro

16. Trio Sonata in D Minor, Op. 1, No. 12, RV 63, "La Follia"

Musicians:
Frank Agsteribbe – Harpsichord
Dmitry Badiarov – Violin
Sara Kuijken – Violin
Luis Otavio Santos – Violin
Sigiswald Kuijken – Leader, Violin, Violoncell Da Spalla
La Petite Bande – Orchestra

Antonio Vivaldi (1678-1741) – Composer

EAC_log
Exact Audio Copy V0.99 prebeta 5 from 4. May 2009

EAC extraction logfile from 28. April 2010, 20:34

Vivaldi / Le Quattro Stagioni (La Petite Bande, Sigiswald Kuijken)

Used drive : Optiarc DVD RW AD-7241S Adapter: 5 ID: 0

Read mode : Secure
Utilize accurate stream : Yes
Defeat audio cache : Yes
Make use of C2 pointers : No

Read offset correction : 48
Overread into Lead-In and Lead-Out : No
Fill up missing offset samples with silence : Yes
Delete leading and trailing silent blocks : No
Null samples used in CRC calculations : Yes
Used interface : Native Win32 interface for Win NT & 2000
Gap handling : Appended to previous track

Used output format : User Defined Encoder
Selected bitrate : 768 kBit/s
Quality : High
Add ID3 tag : No
Command line compressor : C:Program FilesExact Audio CopyFlacflac.exe
Additional command line options : -8 -V -T "ARTIST=%a" -T "TITLE=%t" -T "ALBUM=%g" -T "DATE=%y" -T "TRACKNUMBER=%n" -T "GENRE=%m" -T "COMMENT=EAC FLAC -8" %s

TOC of the extracted CD

Track | Start | Length | Start sector | End sector
––––––––––––––––––––––––––––-
1 | 0:00.00 | 3:22.25 | 0 | 15174
2 | 3:22.25 | 2:27.67 | 15175 | 26266
3 | 5:50.17 | 2:42.67 | 26267 | 38483
4 | 8:33.09 | 3:28.46 | 38484 | 54129
5 | 12:01.55 | 2:51.22 | 54130 | 66976
6 | 14:53.02 | 3:37.67 | 66977 | 83318
7 | 18:30.69 | 5:42.68 | 83319 | 109036
8 | 24:13.62 | 2:24.36 | 109037 | 119872
9 | 26:38.23 | 2:56.12 | 119873 | 133084
10 | 29:34.35 | 5:10.33 | 133085 | 156367
11 | 34:44.68 | 2:47.51 | 156368 | 168943
12 | 37:32.44 | 3:12.05 | 168944 | 183348
13 | 40:44.49 | 3:30.61 | 183349 | 199159
14 | 44:15.35 | 2:10.13 | 199160 | 208922
15 | 46:25.48 | 3:05.35 | 208923 | 222832
16 | 49:31.08 | 9:43.14 | 222833 | 266571

Track 1

Filename E:UploadVIVALDI1. Vivaldi – Concerto in D RV403 1 Allegro.wav

Pre-gap length 0:00:02.00

Peak level 100.0 %
Track quality 100.0 %
Test CRC 2D08292D
Copy CRC 2D08292D
Track not present in AccurateRip database
Copy OK

Track 2

Filename E:UploadVIVALDI2. Vivaldi – Concerto in D RV403 2 Andante et Spirituoso.wav

Peak level 40.9 %
Track quality 100.0 %
Test CRC 117C0279
Copy CRC 117C0279
Track not present in AccurateRip database
Copy OK

Track 3

Filename E:UploadVIVALDI3. Vivaldi – Concerto in D RV403 3 Allegro.wav

Peak level 97.8 %
Track quality 100.0 %
Test CRC B7D1EE60
Copy CRC B7D1EE60
Track not present in AccurateRip database
Copy OK

Track 4

Filename E:UploadVIVALDI4. Vivaldi – Concerto in E RV269 ‘La Primavera” 1 Allegro.wav

Pre-gap length 0:00:02.05

Peak level 100.0 %
Track quality 100.0 %
Test CRC 62A379CC
Copy CRC 62A379CC
Accurately ripped (confidence 2) [EBE434F5]
Copy OK

Track 5

Filename E:UploadVIVALDI5. Vivaldi – Concerto in E RV269 2 Largo e Pianissimo.wav

Peak level 34.8 %
Track quality 100.0 %
Test CRC 7A0E903F
Copy CRC 7A0E903F
Track not present in AccurateRip database
Copy OK

Track 6

Filename E:UploadVIVALDI6. Vivaldi – Concerto in E RV269 3 Danza Pastorale.wav

Peak level 81.0 %
Track quality 100.0 %
Test CRC 3078D1EA
Copy CRC 3078D1EA
Track not present in AccurateRip database
Copy OK

Track 7

Filename E:UploadVIVALDI7. Vivaldi – Concerto in c RV315 ‘L’Estate’ 1 Allegro non molto.wav

Pre-gap length 0:00:03.77

Peak level 100.0 %
Track quality 100.0 %
Test CRC 96C11648
Copy CRC 96C11648
Track not present in AccurateRip database
Copy OK

Track 8

Filename E:UploadVIVALDI8. Vivaldi – Concerto in c RV315 2 Adagio.wav

Peak level 86.9 %
Track quality 100.0 %
Test CRC 8412B5B0
Copy CRC 8412B5B0
Track not present in AccurateRip database
Copy OK

Track 9

Filename E:UploadVIVALDI9. Vivaldi – Concerto in c RV315 3 Presto.wav

Peak level 100.0 %
Track quality 100.0 %
Test CRC 8D2F3195
Copy CRC 8D2F3195
Track not present in AccurateRip database
Copy OK

Track 10

Filename E:UploadVIVALDI10. Vivaldi – Concerto in F RV293 ‘L’Autumno’ 1 Allegro.wav

Pre-gap length 0:00:01.96

Peak level 97.6 %
Track quality 100.0 %
Test CRC 3E6DAE7C
Copy CRC 3E6DAE7C
Track not present in AccurateRip database
Copy OK

Track 11

Filename E:UploadVIVALDI11. Vivaldi – Concerto in F RV293 2 Adagio molto.wav

Peak level 17.2 %
Track quality 99.9 %
Test CRC F028BBBA
Copy CRC F028BBBA
Track not present in AccurateRip database
Copy OK

Track 12

Filename E:UploadVIVALDI12. Vivaldi – Concerto in F RV293 3 Allegro La Chachia.wav

Peak level 100.0 %
Track quality 100.0 %
Test CRC 6B7CD901
Copy CRC 6B7CD901
Track not present in AccurateRip database
Copy OK

Track 13

Filename E:UploadVIVALDI13. Vivaldi – Concerto in e RV297 ‘L’Inverno’ 1 Allegro non molto.wav

Pre-gap length 0:00:00.86

Peak level 94.1 %
Track quality 100.0 %
Test CRC 1DF60001
Copy CRC 1DF60001
Track not present in AccurateRip database
Copy OK

Track 14

Filename E:UploadVIVALDI14. Vivaldi – Concerto in e RV297 2 Largo.wav

Peak level 63.3 %
Track quality 99.9 %
Test CRC 9B27038E
Copy CRC 9B27038E
Track not present in AccurateRip database
Copy OK

Track 15

Filename E:UploadVIVALDI15. Vivaldi – Concerto in e RV297 3 Allegro.wav

Peak level 99.6 %
Track quality 100.0 %
Test CRC C50667F8
Copy CRC C50667F8
Track not present in AccurateRip database
Copy OK

Track 16

Filename E:UploadVIVALDI16. Vivaldi – Sonata in d Op1 No. 12 La Follia RV63.wav

Pre-gap length 0:00:05.72

Peak level 100.0 %
Track quality 100.0 %
Test CRC 535B3431
Copy CRC 535B3431
Track not present in AccurateRip database
Copy OK

1 track(s) accurately ripped
15 track(s) not present in the AccurateRip database

Some tracks could not be verified as accurate

No errors occurred

End of status report

Dynamic_Range_log
foobar2000 1.3.6 / Dynamic Range Meter 1.1.1
log date: 2017-02-08 19:51:01

––––––––––––––––––––––––––––––––––––––––
Analyzed: Vivaldi / Le Quattro Stagioni (La Petite Bande, Sigiswald Kuijken)
––––––––––––––––––––––––––––––––––––––––

DR Peak RMS Duration Track
––––––––––––––––––––––––––––––––––––––––
DR14 0.00 dB -17.46 dB 3:22 01-Concerto in D RV403 1 Allegro
DR12 -7.76 dB -23.58 dB 2:28 02-Concerto in D RV403 2 Andante et Spirituoso
DR14 -0.19 dB -19.04 dB 2:43 03-Concerto in D RV403 3 Allegro
DR13 0.00 dB -18.99 dB 3:29 04-Concerto in E RV269 ‘La Primavera” 1 Allegro
DR12 -9.15 dB -25.10 dB 2:51 05-Concerto in E RV269 2 Largo e Pianissimo
DR13 -1.83 dB -20.14 dB 3:38 06-Concerto in E RV269 3 Danza Pastorale
DR14 0.00 dB -19.55 dB 5:43 07-Concerto in c RV315 ‘L’Estate’ 1 Allegro non molto
DR15 -1.21 dB -23.54 dB 2:24 08-Concerto in c RV315 2 Adagio
DR12 0.00 dB -15.83 dB 2:56 09-Concerto in c RV315 3 Presto
DR15 -0.21 dB -19.31 dB 5:10 10-Concerto in F RV293 ‘L’Autumno’ 1 Allegro
DR10 -15.24 dB -29.48 dB 2:48 11-Concerto in F RV293 2 Adagio molto
DR14 0.00 dB -16.53 dB 3:12 12-Concerto in F RV293 3 Allegro La Chachia
DR13 -0.53 dB -19.46 dB 3:31 13-Concerto in e RV297 ‘L’Inverno’ 1 Allegro non molto
DR13 -3.97 dB -22.34 dB 2:10 14-Concerto in e RV297 2 Largo
DR13 -0.03 dB -18.15 dB 3:05 15-Concerto in e RV297 3 Allegro
DR14 0.00 dB -18.13 dB 9:43 16-Sonata in d Op1 No. 12 La Follia RV63
––––––––––––––––––––––––––––––––––––––––

Number of tracks: 16
Official DR value: DR13

Samplerate: 44100 Hz
Channels: 2
Bits per sample: 16
Bitrate: 779 kbps
Codec: FLAC
================================================================================

Thanks to the original releaser

La Petite Bande, Sigiswald Kuijken – Vivaldi: Le Quattro Stagioni (The Four Seasons) (2007) Download, Warez, DDL, Free, Full Album, Torrent, Legal.

Download