Kurt Rosenwinkel – The Next Step (2000) {Verve 314 549 162-2}

Download
Kurt Rosenwinkel - The Next Step (2000) {Verve 314 549 162-2}

Kurt Rosenwinkel – The Next Step (2000) {Verve 314 549 162-2}
EAC rip (secure mode) | FLAC (tracks)+CUE+LOG -> 376 Mb | MP3 @320 -> 144 Mb
Full Artwork @ 300 dpi (jpg) -> 24 Mb | 5% repair rar
© 2000 Verve / Universal Music | 314 549 162-2
Jazz / Post Bop / Straight-Ahead Jazz / Guitar

Guitarist Kurt Rosenwinkel takes The Next Step in his creative evolution on eight songs that exude several degrees of great jazz. He succeeds in topping the musical tastes presented on his debut release for the Verve label, The Enemies of Energy. Rosenwinkel is one of many young jazz musicians forging ahead into the new millennium with bold musical steps, and the compositions, all of which he wrote, represent the culmination of many life phases for him. First formed as a guitar-bass-drums trio in 1992, Rosenwinkel’s band is now a quartet including Mark Turner on tenor saxophone, Ben Street on bass, and Jeff Ballard on drums, all excellent artists in their own right. All four musicians can be heard on The Enemies of Energy, and The Next Step is additional documentation of their relationship as a band.

The CD opens with the melodic "Zhivago," a ballad inspired by the imagery of the motion picture Dr. Zhivago. "Minor Blues" is just that – with an up-tempo groove and plenty of room for improvisation; it is especially memorable. Turner’s saxophone workout on "A Shifting Design" is spurred on by the great drumming of Ballard and the alternate tuning of Rosenwinkel’s guitar. This song opens with a pensive introduction and develops into a swinging, "shifting design" of notes, chords, and great basslines. Ballard is fascinatingly rhythmic, and uses percussive elements in a wealth of creative experiments. The title track spotlights Rosenwinkel on piano in harmony with Turner’s sax and shaded by Ballard and Street’s rhythmic finesse. This song has an ageless style, and Rosenwinkel’s execution is filled with great improvisational ideas. This is an excellent listening experience that builds from start to finish.

Kurt Rosenwinkel - The Next Step (2000) {Verve 314 549 162-2}

Personnel:
Kurt Rosenwinkel: guitar, piano (7)
Mark Turner: tenor saxophone
Ben Street: bass
Jeff Ballard: drums

tracklist:
01 – Zhivago
02 – Minor Blues
03 – A Shifting Design
04 – Path of the Heart
05 – Filters
06 – Use of Light
07 – The Next Step
08 – A Life Unfolds

EAC log
EAC extraction logfile from 29. October 2007, 5:41 for CD
Kurt Rosenwinkel / The Next Step

Used drive : PIONEER DVD-RW DVR-112D Adapter: 0 ID: 0
Read mode : Secure with NO C2, accurate stream, disable cache
Read offset correction : 48
Overread into Lead-In and Lead-Out : No

Used output format : C:Program FilesExact Audio Copyflac-1.1.4-winbinflac.exe (User Defined Encoder)
128 kBit/s
Additional command line options : -8 -V -T "ARTIST=%a" -T "TITLE=%t" -T "ALBUM=%g" -T "DATE=%y" -T "TRACKNUMBER=%n" -T "GENRE=%m" -T "COMMENT=EAC Flac 1.1.4 -8" %s

Other options :
Fill up missing offset samples with silence : Yes
Delete leading and trailing silent blocks : No
Installed external ASPI interface

Track 1
Filename C:Program FilesExact Audio CopyKurt Rosenwinkel – 2000 – The Next Step1 – Zhivago.wav

Pre-gap length 0:00:02.00

Peak level 99.8 %
Track quality 100.0 %
Test CRC 8B28BB8D
Copy CRC 8B28BB8D
Copy OK

Track 2
Filename C:Program FilesExact Audio CopyKurt Rosenwinkel – 2000 – The Next Step2 – Minor Blues.wav

Pre-gap length 0:00:00.89

Peak level 99.8 %
Track quality 99.9 %
Test CRC F3CB6263
Copy CRC F3CB6263
Copy OK

Track 3
Filename C:Program FilesExact Audio CopyKurt Rosenwinkel – 2000 – The Next Step3 – A Shifting Design.wav

Pre-gap length 0:00:02.61

Peak level 99.8 %
Track quality 100.0 %
Test CRC 931EBC15
Copy CRC 931EBC15
Copy OK

Track 4
Filename C:Program FilesExact Audio CopyKurt Rosenwinkel – 2000 – The Next Step4 – Path of the Heart.wav

Pre-gap length 0:00:02.94

Peak level 99.8 %
Track quality 100.0 %
Test CRC 04EE5825
Copy CRC 04EE5825
Copy OK

Track 5
Filename C:Program FilesExact Audio CopyKurt Rosenwinkel – 2000 – The Next Step5 – Filters.wav

Pre-gap length 0:00:00.01

Peak level 99.8 %
Track quality 100.0 %
Test CRC 9454CEC7
Copy CRC 9454CEC7
Copy OK

Track 6
Filename C:Program FilesExact Audio CopyKurt Rosenwinkel – 2000 – The Next Step6 – Use of Light.wav

Pre-gap length 0:00:02.36

Peak level 99.8 %
Track quality 100.0 %
Test CRC 9EAF6BA5
Copy CRC 9EAF6BA5
Copy OK

Track 7
Filename C:Program FilesExact Audio CopyKurt Rosenwinkel – 2000 – The Next Step7 – The Next Step.wav

Pre-gap length 0:00:00.25

Peak level 99.8 %
Track quality 100.0 %
Test CRC 0DBDCA8C
Copy CRC 0DBDCA8C
Copy OK

Track 8
Filename C:Program FilesExact Audio CopyKurt Rosenwinkel – 2000 – The Next Step8 – A Life Unfolds.wav

Pre-gap length 0:00:06.54

Peak level 99.8 %
Track quality 100.0 %
Test CRC 91AEC0F5
Copy CRC 91AEC0F5
Copy OK

No errors occured

End of status report

Kurt Rosenwinkel - The Next Step (2000) {Verve 314 549 162-2}

Kurt Rosenwinkel - The Next Step (2000) {Verve 314 549 162-2}

===

Kurt Rosenwinkel – The Next Step (2000) {Verve 314 549 162-2} Download, Warez, DDL, Free, Full Album, Torrent, Legal.

Download