Krysia Osostowicz, Susan Tomes – Gabriel Fauré: Violin Sonatas (1999) | ViralVideoPk

Daily Dose of Free Downloads

Krysia Osostowicz, Susan Tomes – Gabriel Fauré: Violin Sonatas (1999)

Download

Krysia Osostowicz, Susan Tomes - Gabriel Fauré: Violin Sonatas (1999)

Krysia Osostowicz, Susan Tomes – Gabriel Fauré: Violin Sonatas (1999)
EAC | FLAC (image+.cue, log) | Covers + Digital Booklet | 49:47 | 238 MB
Genre: Classical | Label: Helios | Catalog: 55030

Perhaps I should begin by reminding readers that Krysia Osostowicz (of Polish descent) and the Edinburgh-born Susan Tomes are founder members of Domus—the group whose debut recording of Faure’s two piano quartets won them the Gramophone Chamber award in 1986. And once again these two artists affirm their very special affinity with this French composer. It is a record I can recommend without reservations for its style and conviction, as also for wholly natural tonal reproduction (Andrew Keener and Antony Howell) and discerning programme-notes (Richard Wigmore).
While equally enjoying both sonatas, I particularly admired them in the Second. Some four decades separate it from its more immediately engaging youthful predecessor, by which time Faure, now deaf, had moved into a more recondite world of his own. The first movement, in particular, betrays its war-time background and the composer’s personal disquiet (the note reminds us that his son was away on active service). This the players convey a bit more urgently than the suaver Mintz and Bronfman on DG, never allowing too much relaxation of tension even in the ”consolatory calm” (to quote Wigmore) of its third subject. I also think they are at once simpler and subtler in the closely interwoven strands of the effortlessly self-generating Andante. And how persuasively they capture the expansive ardour of the finale. They favour marginally faster tempos than their CD rivals. though never quite as fast as those of the eager Grumiaux and Crossley in their endearing old Philips recording (now, in close comparison, slightly betraying its age in too resonant an acoustic for the good of the keyboard).
The earlier A major Sonata again finds the newcomers supremely stylish in their fluid lyricism and emotional volatility. In the work’s constant duetting they are as finely attuned as any two partners could ever hope to be as also in the mercurial exchanges of the scherzo. However, it was in this work that Mintz’s tone struck me as more sensuously appealing than Osostowicz’s (test it at the start of the Andante), and Bronfman’s pianoa bit brighter than Tomes’s on the Hyperion disc. But both teams are as finely balanced as they are mellifluous. Either of these discs will make every purchaser just as happy as the honey-toned Grumiaux and Crossley did in their own ardently affectionate way nearly 10 years ago.

AllMusic

Krysia Osostowicz, Susan Tomes - Gabriel Fauré: Violin Sonatas (1999)

Track List:

Gabriel Fauré (1845-1924)

[1]-[4] Violin Sonata No.1 in A major, Op.13
[5]-[7] Violin Sonata No.2 in E minor, Op.108

Performers:
Krysia Osostowicz, violin
Susan Tomes, piano

EAC Log
Exact Audio Copy V1.1 from 23. June 2015

EAC extraction logfile from 6. December 2016, 19:51

Krysia Osostowicz, Susan Tomes / Fauré – Violin Sonatas

Used drive : HL-DT-STDVDRAM GU70N Adapter: 1 ID: 0

Read mode : Secure
Utilize accurate stream : Yes
Defeat audio cache : Yes
Make use of C2 pointers : No

Read offset correction : 48
Overread into Lead-In and Lead-Out : No
Fill up missing offset samples with silence : Yes
Delete leading and trailing silent blocks : No
Null samples used in CRC calculations : Yes
Used interface : Native Win32 interface for Win NT & 2000

Used output format : User Defined Encoder
Selected bitrate : 128 kBit/s
Quality : High
Add ID3 tag : No
Command line compressor : C:Program Files (x86)Exact Audio CopyFlacflac.exe
Additional command line options : -V -8 -T "Date=%year%" -T "Genre=%genre%" %source%

TOC of the extracted CD

Track | Start | Length | Start sector | End sector
––––––––––––––––––––––––––––-
1 | 0:00.00 | 9:29.25 | 0 | 42699
2 | 9:29.25 | 7:26.25 | 42700 | 76174
3 | 16:55.50 | 4:02.25 | 76175 | 94349
4 | 20:58.00 | 5:25.50 | 94350 | 118774
5 | 26:23.50 | 8:39.47 | 118775 | 157746
6 | 35:03.22 | 8:39.48 | 157747 | 196719
7 | 43:42.70 | 6:07.05 | 196720 | 224249

Range status and errors

Selected range

Filename C:tempCDH55030 – Faure – Violin SonatasFaure – Violin Sonatas.wav

Peak level 86.1 %
Extraction speed 4.8 X
Range quality 99.9 %
Test CRC 4B8A6CEC
Copy CRC 4B8A6CEC
Copy OK

No errors occurred

AccurateRip summary

Track 1 accurately ripped (confidence 4) [BD96045C] (AR v2)
Track 2 accurately ripped (confidence 4) [91CBA2D4] (AR v2)
Track 3 accurately ripped (confidence 4) [CA5DF649] (AR v2)
Track 4 accurately ripped (confidence 4) [AC5DBF63] (AR v2)
Track 5 accurately ripped (confidence 4) [06F8BC4A] (AR v2)
Track 6 accurately ripped (confidence 4) [6C7B8CD7] (AR v2)
Track 7 accurately ripped (confidence 4) [F6C2844F] (AR v2)

All tracks accurately ripped

End of status report

==== Log checksum A50C962965E0F39D5EA43CF317E4D2D3E7BC4C31A29BAA2470E7A2A5D50F1F6D ====

CUETools Log
[CUETools log; Date: 25.12.2016 13:13:56; Version: 2.1.5]
[CTDB TOCID: 7vEVJ5xQc5iAPpA2mO9ZaSoihi0-] found.
Track | CTDB Status
1 | (48/49) Accurately ripped
2 | (48/49) Accurately ripped
3 | (48/49) Accurately ripped
4 | (49/49) Accurately ripped
5 | (48/49) Accurately ripped
6 | (47/49) Accurately ripped
7 | (47/49) Accurately ripped
[AccurateRip ID: 000de57d-00527063-4a0bae07] found.
Track [ CRC | V2 ] Status
01 [5d36587a|bd96045c] (00+04/59) Accurately ripped
02 [85654237|91cba2d4] (00+04/59) Accurately ripped
03 [878c1a7c|ca5df649] (00+04/59) Accurately ripped
04 [7f117448|ac5dbf63] (00+04/58) Accurately ripped
05 [63b97c69|06f8bc4a] (00+04/59) Accurately ripped
06 [ed22d5ae|6c7b8cd7] (00+04/57) Accurately ripped
07 [d7e120b9|f6c2844f] (00+04/58) Accurately ripped
Offsetted by -652:
01 [0cc8c223] (02/59) Accurately ripped
02 [eb2b81a1] (02/59) Accurately ripped
03 [7faf6d2d] (02/59) Accurately ripped
04 [93b2207c] (02/58) Accurately ripped
05 [6145c9ad] (02/59) Accurately ripped
06 [c0a157d9] (02/57) Accurately ripped
07 [d0d98a2e] (02/58) Accurately ripped
Offsetted by -634:
01 [6319a95d] (13/59) Accurately ripped
02 [7a40ad8b] (13/59) Accurately ripped
03 [cdf69635] (13/59) Accurately ripped
04 [cbbbc78c] (13/58) Accurately ripped
05 [c752d73b] (13/59) Accurately ripped
06 [f37618d8] (13/57) Accurately ripped
07 [abdd82d9] (13/58) Accurately ripped
Offsetted by 20:
01 [6732e50c] (03/59) Accurately ripped
02 [880162a5] (03/59) Accurately ripped
03 [c6ed07e9] (03/59) Accurately ripped
04 [5e0f6437] (03/58) Accurately ripped
05 [c8412a67] (03/59) Accurately ripped
06 [1ae60838] (03/57) Accurately ripped
07 [89dc0a65] (03/58) Accurately ripped
Offsetted by 30:
01 [39df450b] (03/59) Accurately ripped
02 [3d240027] (03/59) Accurately ripped
03 [f04cfa56] (03/59) Accurately ripped
04 [f152a90d] (03/58) Accurately ripped
05 [08b2eaa3] (03/59) Accurately ripped
06 [0da9535b] (03/57) Accurately ripped
07 [1f680cee] (03/58) Accurately ripped
Offsetted by 2495:
01 [4f45736b] (04/59) Accurately ripped
02 [60226c24] (04/59) Accurately ripped
03 [92003ffa] (04/59) Accurately ripped
04 [2638a79e] (04/58) Accurately ripped
05 [cefd759e] (04/59) Accurately ripped
06 [72e5767a] (03/57) Accurately ripped
07 [4509a926] (03/58) Accurately ripped
Offsetted by -1325:
01 [5d22f416] (00/59) No match (V2 was not tested)
02 [3b851698] (00/59) No match (V2 was not tested)
03 [05ea718c] (00/59) No match (V2 was not tested)
04 [d7792795] (00/58) No match (V2 was not tested)
05 [5be70d53] (00/59) No match (V2 was not tested)
06 [26e77954] (00/57) No match (V2 was not tested)
07 [2b34bd97] (00/58) No match (V2 was not tested)
Offsetted by -640:
01 [77647515] (00/59) No match (V2 was not tested)
02 [b89fd8b5] (00/59) No match (V2 was not tested)
03 [5a0f8245] (00/59) No match (V2 was not tested)
04 [5b4bcf46] (00/58) No match (V2 was not tested)
05 [67cfd177] (00/59) No match (V2 was not tested)
06 [84cb0e9b] (00/57) No match (V2 was not tested)
07 [ae976f1a] (00/58) No match (V2 was not tested)
Offsetted by -216:
01 [4ba8ceba] (00/59) No match (V2 was not tested)
02 [369ed2f3] (00/59) No match (V2 was not tested)
03 [08aae46e] (00/59) No match (V2 was not tested)
04 [ba054026] (00/58) No match (V2 was not tested)
05 [66c8cfe2] (00/59) No match (V2 was not tested)
06 [892d7730] (00/57) No match (V2 was not tested)
07 [e0288a8e] (00/58) No match (V2 was not tested)

Track Peak [ CRC32 ] [W/O NULL] [ LOG ]
– 86,1 [4B8A6CEC] [AE27A266] CRC32
01 86,1 [E99FC7F4] [B776632A]
02 65,6 [714A320F] [A45370BD]
03 59,9 [99622CC2] [838BEF18]
04 79,2 [4B1422A3] [0B205E7D]
05 85,9 [DFAB508C] [4C760010]
06 57,4 [39FA2725] [3D7345B6]
07 71,9 [4AD1BCE7] [B0D66269]

Thanks to the Original ripper A-Z!

Download:

Krysia Osostowicz, Susan Tomes – Gabriel Fauré: Violin Sonatas (1999) Download, Warez, DDL, Free, Full Album, Torrent, Legal.

Download


  • Recent Posts

  • Recent Tags