Kronos Quartet – Caravan (2000)

Download
Kronos Quartet - Caravan (2000)

Kronos Quartet – Caravan (2000)
EAC | FLAC (image+.cue, log) | Covers Included | 01:02:51 | 319 MB
Genre: Modern Classical | Label: Nonesuch | Catalog: 7559794902

On their 2000 release, the Kronos Quartet has appeared with an album worthy of their name. On Caravan, the quartet uses songs from the world round, with all of them rearranged as needed to fit a string quartet. There are compositions from Yugoslavia ("Pannonia Boundless"), Portugal ("Cancao Verdes Anos" and "Romance No. 1"), India ("Aaj Ki Raat"), Mexico ("La Muerte Chiquita"), Turkey ("Turceasca"), Romania, Hungary, Iran, Lebanon, and Argentina. There are guest artists left and right on the album: Hindustani tabla great Zakir Hussain aids on the Bollywood work "Aaj Ki Raat" (Tonight’s the Night). Taraf de Haidouks, a gypsy ensemble, provides extra violins and accordions on "Turceasca" to make the work outright exhilarating. Lebanese nay player Ali Jihad Racy appears on his composition, as does Iranian kemancheh player Kayhan Kalhor. The Kronos Quartet has shown themselves to be quite adept at ethnic musics (though Westernized thoroughly by the time the quartet is through with them) since Pieces of Africa, and possibly even better than their American based works (see Music of Bill Evans album). That part still continues. They again use stunning virtuosity to make a tango play through smoothly on this album, as tangos almost seem to be a specialty for the group. There is quite a rough spot on the album on Terry Riley’s composition, "Cortejo Funebre en el Monte Diablo." The work sounds like some kind of classicized version of a cross between industrial punk and video game background music – needless to say, not the greatest work ever done by the group. To end the album, the quartet takes on an interpretation of surf guitar king Dick Dale’s hit "Misirlou," adapting it to their format with surprising efficiency. Overall, the music is for the most part relatively incredible, despite the rough spot on Riley’s composition. Kronos Quartet are occasionally on-again-off-again, but here, they’re almost entirely on.

AllMusic

Kronos Quartet - Caravan (2000)

Track List:

01. Pannonia Boundless – Aleksandra Vrebalov
02. Cancao Verdes Anos – Carlos Paredes (arr. Osvaldo Golijov)
03. Aaj Ki Raat – Rahul Dev Burman (arr. Osvaldo Golijov)
04. La Muerta Chiquita – Enrique Rangel (arr. Osvaldo Golijov)
05. Turceasca – Sapo Perapaskero (arr. Osvaldo Golijov)
06. Gloomy Sunday – Rezso Seress (arr. Osvaldo Golijov)
07. Cortejo Funebre en el Monte Diablo – Terry Riley
08. Responso – Anibal Troilo
09. Romance No. 1 – Carlos Paredes (arr. Osvaldo Golijov)
10. Gallop of a Thousand Horses – Kayhan Kalhor
11. Ecstasy – Ali Jihad Racy
12. Misirlou Twist – Nicholas Roubanis (arr. Osvaldo Golijov)

Performers:
Kronos Quartet
with guest artists: Zakir Hussain, Taraf de Haidouks, Kayhan Kalhor, Ziya Tabbassian, Ali Jihad Racy, Souhail Kaspar, Martyn Jones

EAC Log
Exact Audio Copy V0.99 prebeta 4 from 23. January 2008

EAC extraction logfile from 24. May 2008, 18:58

Kronos Quartet / Caravan

Used drive : TSSTcorpCD/DVDW SH-S182M Adapter: 2 ID: 0

Read mode : Secure
Utilize accurate stream : Yes
Defeat audio cache : Yes
Make use of C2 pointers : No

Read offset correction : 6
Overread into Lead-In and Lead-Out : No
Fill up missing offset samples with silence : Yes
Delete leading and trailing silent blocks : No
Null samples used in CRC calculations : No
Used interface : Installed external ASPI interface

Used output format : User Defined Encoder
Selected bitrate : 1024 kBit/s
Quality : High
Add ID3 tag : No
Command line compressor : C:Program FilesExact Audio CopyFLACFLAC.EXE
Additional command line options : -6 -V -T "ARTIST=%a" -T "TITLE=%t" -T "ALBUM=%g" -T "DATE=%y" -T "TRACKNUMBER=%n" -T "GENRE=%m" -T "COMMENT=%e" %s -o %d

TOC of the extracted CD

Track | Start | Length | Start sector | End sector
––––––––––––––––––––––––––––-
1 | 0:00.00 | 6:12.20 | 0 | 27919
2 | 6:12.20 | 3:04.52 | 27920 | 41771
3 | 9:16.72 | 4:53.05 | 41772 | 63751
4 | 14:10.02 | 4:06.53 | 63752 | 82254
5 | 18:16.55 | 7:31.37 | 82255 | 116116
6 | 25:48.17 | 3:27.58 | 116117 | 131699
7 | 29:16.00 | 7:08.60 | 131700 | 163859
8 | 36:24.60 | 4:40.62 | 163860 | 184921
9 | 41:05.47 | 4:07.00 | 184922 | 203446
10 | 45:12.47 | 4:43.28 | 203447 | 224699
11 | 49:56.00 | 8:34.67 | 224700 | 263316
12 | 58:30.67 | 4:20.28 | 263317 | 282844

Range status and errors

Selected range

Filename F:zKronos Quartet – Caravan.wav

Peak level 100.0 %
Range quality 99.9 %
Copy CRC 5A23FED5
Copy OK

No errors occurred

AccurateRip summary

Track 1 not present in database
Track 2 not present in database
Track 3 not present in database
Track 4 not present in database
Track 5 not present in database
Track 6 not present in database
Track 7 not present in database
Track 8 not present in database
Track 9 not present in database
Track 10 not present in database
Track 11 not present in database
Track 12 not present in database

None of the tracks are present in the AccurateRip database

End of status report

CUETools Log
[CUETools log; Date: 11.07.2017 10:31:54; Version: 2.1.5]
HDCD: peak extend: none, transient filter: some, gain: none
[CTDB TOCID: IrsdztCfr3CqoPJJJsVfX418ezc-] found.
Track | CTDB Status
1 | (51/52) Accurately ripped
2 | (52/52) Accurately ripped
3 | (52/52) Accurately ripped
4 | (52/52) Accurately ripped
5 | (52/52) Accurately ripped
6 | (52/52) Accurately ripped
7 | (51/52) Accurately ripped
8 | (51/52) Accurately ripped
9 | (52/52) Accurately ripped
10 | (51/52) Accurately ripped
11 | (51/52) Accurately ripped
12 | (50/52) Accurately ripped, or (2/52) differs in 1470 samples @01:44:15-01:44:17
[AccurateRip ID: 001b42ef-01001b33-bc0ebb0c] found.
Track [ CRC | V2 ] Status
01 [6ef92a1d|584c1cda] (18+36/57) Accurately ripped
02 [966e418a|6082b237] (18+37/58) Accurately ripped
03 [19dbe729|20977058] (19+37/59) Accurately ripped
04 [140dd717|6e573722] (18+37/58) Accurately ripped
05 [5265902c|a54f94a3] (18+37/58) Accurately ripped
06 [3ca6edcb|9706cb49] (18+37/58) Accurately ripped
07 [cf50376f|b2538936] (18+37/58) Accurately ripped
08 [203bb9eb|f1a94f4d] (18+37/58) Accurately ripped
09 [58f23bed|d710f49c] (18+37/58) Accurately ripped
10 [10bdc612|6d33c0ba] (18+37/58) Accurately ripped
11 [d427be9f|2d79e60a] (17+37/57) Accurately ripped
12 [a188d8ed|140998b7] (17+37/57) Accurately ripped
Offsetted by -1509:
01 [51f63316] (00/57) No match (V2 was not tested)
02 [76e82188] (00/58) No match (V2 was not tested)
03 [e412a5f4] (00/59) No match (V2 was not tested)
04 [c16b9bbb] (00/58) No match (V2 was not tested)
05 [0d5f05dd] (00/58) No match (V2 was not tested)
06 [0ffe1c6d] (00/58) No match (V2 was not tested)
07 [4d4aad68] (00/58) No match (V2 was not tested)
08 [208f6ed4] (00/58) No match (V2 was not tested)
09 [08dbd647] (00/58) No match (V2 was not tested)
10 [26e2641f] (00/58) No match (V2 was not tested)
11 [cdd32219] (00/57) No match (V2 was not tested)
12 [15b56ac3] (00/57) No match (V2 was not tested)
Offsetted by -1305:
01 [00e81c86] (00/57) No match (V2 was not tested)
02 [55ea77ef] (00/58) No match (V2 was not tested)
03 [51b5e439] (00/59) No match (V2 was not tested)
04 [13aa82e8] (00/58) No match (V2 was not tested)
05 [05cceab2] (00/58) No match (V2 was not tested)
06 [1f809dd2] (00/58) No match (V2 was not tested)
07 [f6df0930] (00/58) No match (V2 was not tested)
08 [c2e6323e] (00/58) No match (V2 was not tested)
09 [735b6f71] (00/58) No match (V2 was not tested)
10 [b3d79408] (00/58) No match (V2 was not tested)
11 [6f39522f] (00/57) No match (V2 was not tested)
12 [4a276a3f] (00/57) No match (V2 was not tested)

Track Peak [ CRC32 ] [W/O NULL] [ LOG ]
– 100,0 [F23AC158] [5A23FED5] W/O NULL
01 74,2 [740B983A] [C8736EDD]
02 36,3 [32712190] [A46945FB]
03 85,6 [9A2557AA] [FF8D0EA7]
04 71,9 [683660D8] [B870E65B]
05 99,8 [29E0E7A0] [1956F6B0]
06 39,5 [78F43995] [D175306C]
07 66,3 [7C79C274] [5D874C52]
08 57,6 [8F548F8E] [1EF9C6FD]
09 63,0 [F80AC55F] [34A5BCE2]
10 98,9 [F8ECF2F0] [53051988]
11 78,7 [4BD6D7E1] [B12F22FE]
12 100,0 [060E6537] [2DEAEA75]

Thanks to the Original ripper (unknown)!

Download:

Kronos Quartet – Caravan (2000) Download, Warez, DDL, Free, Full Album, Torrent, Legal.

Download