Kraftwerk – The Mix (1991) English & German Versions [Non-Remastered] Re-Up

Download
Kraftwerk - The Mix (1991) English & German Versions [Non-Remastered] Re-Up

Kraftwerk – The Mix (1991) English Version
EAC | FLAC | Image (Cue&Log) ~ 407 Mb | Mp3 (CBR320) ~ 162 Mb | Scans included
Experimental Electronic, Techno-pop, Synth-pop | Label: Elektra | # 9 60869-2 | 01:05:15

Kraftwerk – The Mix (1991) German Version
EAC | FLAC | Image (Cue&Log) ~ 396 Mb | Mp3 (CBR320) ~ 149 Mb | Scans ~ 86 Mb
Label: Electrola, Kling Klang | # CDP 1C 568-7 96650 2 | 01:05:15

The Mix is a 1991 remix album by Kraftwerk. It featured re-recorded versions of a selection of songs which had originally appeared on the albums Autobahn through Electric Cafe. Hutter stated in interviews that he regarded The Mix as a type of live album, as it captured the results of the band’s continual digital improvisations in their Kling Klang studio. The band made a return to the stage in 1990, after a nine-year hiatus from touring. Most of the songs featured on their set list from this point to the present time have been heavily rearranged in a similar fashion to what appears on the album.

By the early ’90s, it was quite apparent just how far-reaching Kraftwerk’s influence had been. From techno to hip-hop to industrial music to house, numerous others were undeniably indebted to the group. Dance clubs had long been a key part of Kraftwerk’s following, and the dance market was the obvious target of The Mix – a collection of highly enjoyable, often clever remixes. While novices would do better to start out with Trans-Europe Express or The Man-Machine, hardcore Kraftwerk followers shouldn’t pass up these remixes of such classics as "Trans-Europe Express," "The Robots," "Autobahn," and "Radioactivity." One could nitpick about the absence of "Neon Lights" and "Europe Endless," but the bottom line is that this CD was a welcome addition to the Kraftwerk catalog.

Review by Alex Henderson, Allmusic.com

Kraftwerk - The Mix (1991) English & German Versions [Non-Remastered] Re-Up

Kraftwerk at Allmusic
Kraftwerk Website
Kraftwerk at Wiki

English Version Tracklist:

01. The Robots (08:55)
02. Computerlove (06:35)
03. Pocket Calculator (04:32)
04. Dentaku (03:26)
05. Autobahn (09:26)
06. Radioactivity (06:51)
07. Trans Europe Express (03:20)
08. Abzug (02:18)
09. Metal On Metal (04:57)
10. Home Computer (08:01)
11. Music Non Stop (06:37)

EAC log
Exact Audio Copy V0.99 prebeta 4 from 23. January 2008

EAC extraction logfile from 28. February 2009, 11:12

Kraftwerk / The Mix

Used drive : PIONEER DVD-RW DVR-111D Adapter: 0 ID: 0

Read mode : Secure
Utilize accurate stream : Yes
Defeat audio cache : Yes
Make use of C2 pointers : No

Read offset correction : 48
Overread into Lead-In and Lead-Out : No
Fill up missing offset samples with silence : Yes
Delete leading and trailing silent blocks : No
Null samples used in CRC calculations : Yes
Used interface : Installed external ASPI interface

Used output format : User Defined Encoder
Selected bitrate : 768 kBit/s
Quality : High
Add ID3 tag : No
Command line compressor : C:Program FilesExact Audio CopyFLACFLAC.EXE
Additional command line options : -6 -V -T "ARTIST=%a" -T "TITLE=%t" -T "ALBUM=%g" -T "DATE=%y" -T "TRACKNUMBER=%n" -T "GENRE=%m" -T "COMMENT=%e" %s -o %d

TOC of the extracted CD

Track | Start | Length | Start sector | End sector
––––––––––––––––––––––––––––-
1 | 0:00.32 | 8:57.03 | 32 | 40309
2 | 8:57.35 | 6:37.40 | 40310 | 70124
3 | 15:35.00 | 4:32.22 | 70125 | 90546
4 | 20:07.22 | 3:28.08 | 90547 | 106154
5 | 23:35.30 | 9:28.12 | 106155 | 148766
6 | 33:03.42 | 6:53.48 | 148767 | 179789
7 | 39:57.15 | 3:20.17 | 179790 | 194806
8 | 43:17.32 | 2:18.10 | 194807 | 205166
9 | 45:35.42 | 4:59.03 | 205167 | 227594
10 | 50:34.45 | 8:02.47 | 227595 | 263791
11 | 58:37.17 | 6:37.70 | 263792 | 293636

Range status and errors

Selected range

Filename Q:AudioKraftwerk1991 The MixKraftwerk – The Mix.wav

Peak level 100.0 %
Range quality 100.0 %
Test CRC 0B614CE4
Copy CRC 0B614CE4
Copy OK

No errors occurred

AccurateRip summary

Track 1 accurately ripped (confidence 49) [8477E586]
Track 2 accurately ripped (confidence 49) [7D09B3F9]
Track 3 accurately ripped (confidence 49) [71404552]
Track 4 accurately ripped (confidence 50) [ACF8C7CB]
Track 5 accurately ripped (confidence 49) [172ECB9E]
Track 6 accurately ripped (confidence 48) [C3BA1BEB]
Track 7 accurately ripped (confidence 48) [085E50EE]
Track 8 accurately ripped (confidence 48) [CE70E6ED]
Track 9 accurately ripped (confidence 48) [DEEA6D16]
Track 10 accurately ripped (confidence 46) [BB52DFE7]
Track 11 accurately ripped (confidence 46) [27D87491]

All tracks accurately ripped

End of status report

DR log
foobar2000 1.2 / Dynamic Range Meter 1.1.1
log date: 2014-03-13 22:12:11

––––––––––––––––––––––––––––––––––––––––
Analyzed: Kraftwerk / The Mix
––––––––––––––––––––––––––––––––––––––––

DR Peak RMS Duration Track
––––––––––––––––––––––––––––––––––––––––
DR15 -0.06 dB -17.07 dB 8:57 01-The Robots
DR14 0.00 dB -15.39 dB 6:38 02-Computerlove
DR14 0.00 dB -15.76 dB 4:32 03-Pocket Calculator
DR14 -0.20 dB -15.91 dB 3:28 04-Dentaku
DR13 -1.20 dB -16.34 dB 9:28 05-Autobahn
DR14 -0.40 dB -16.00 dB 6:54 06-Radioactivity
DR14 -2.89 dB -19.99 dB 3:20 07-Trans Europe Express
DR14 -1.99 dB -18.16 dB 2:18 08-Abzug
DR15 -1.79 dB -19.11 dB 4:59 09-Metal On Metal
DR14 -0.40 dB -16.29 dB 8:03 10-Home Computer
DR15 -0.40 dB -17.46 dB 6:38 11-Music Non Stop
––––––––––––––––––––––––––––––––––––––––

Number of tracks: 11
Official DR value: DR14

Samplerate: 44100 Hz
Channels: 2
Bits per sample: 16
Bitrate: 844 kbps
Codec: FLAC
================================================================================

Kraftwerk - The Mix (1991) English & German Versions [Non-Remastered] Re-Up

Kraftwerk - The Mix (1991) English & German Versions [Non-Remastered] Re-Up

German Version Tracklist:

01. Die Roboter (08:53)
02. Computerliebe (06:37)
03. Taschenrechner (04:32)
04. Dentaku (03:26)
05. Autobahn (09:26)
06. Radioaktivität (06:53)
07. Trans Europa Express (03:20)
08. Abzug (02:18)
09. Metall auf Metall (04:58)
10. Heimcomputer (08:02)
11. Musik Non Stop (06:41)

EAC log
Exact Audio Copy V1.0 beta 6 from 9. April 2015

Отчёт EAC об извлечении, выполненном 26. апреля 2015, 22:34

Kraftwerk / The Mix (EU, CDP 1C 568-7 96650 2)

Дисковод: PIONEER BD-RW BDR-206 Adapter: 1 ID: 1

Режим чтения : Достоверность
Использование точного потока : Да
Отключение кэша аудио : Да
Использование указателей C2 : Нет

Коррекция смещения при чтении : 667
Способность читать области Lead-in и Lead-out : Нет
Заполнение пропущенных сэмплов тишиной : Да
Удаление блоков с тишиной в начале и конце : Нет
При вычислениях CRC использовались нулевые сэмплы : Да
Интерфейс : Встроенный Win32-интерфейс для Win NT/2000

Выходной формат : Пользовательский кодировщик
Выбранный битрейт : 1024 kBit/s
Качество : Высокий
Добавление ID3-тега : Нет
Утилита сжатия : C:Program Files (x86)Exact Audio CopyFLACFLAC.EXE
Дополнительные параметры : -T "COMMENT=Ripped by SergeyJD"-8 -V -T "ARTIST=%artist%" -T "TITLE=%title%" -T "ALBUM=%albumtitle%" -T "DATE=%year%" -T "TRACKNUMBER=%tracknr%" -T "GENRE=%genre%" -T "COMMENT=%comment%" -T "BAND=%albuminterpret%" -T "ALBUMARTIST=%albuminterpret%" -T "COMPOSER=%composer%" %haslyrics%–tag-from-file=LYRICS="%lyricsfile%"%haslyrics% -T "DISCNUMBER=%cdnumber%" -T "TOTALDISCS=%totalcds%" -T "TOTALTRACKS=%numtracks%" %hascover%–picture="%coverfile%"%hascover% %source% -o %dest%

TOC извлечённого CD

Трек | Старт | Длительность | Начальный сектор | Конечный сектор
––––––––––––––––––––––––––––––––––-
1 | 0:00.00 | 8:53.70 | 0 | 40044
2 | 8:53.70 | 6:38.40 | 40045 | 69934
3 | 15:32.35 | 4:32.48 | 69935 | 90382
4 | 20:05.08 | 3:26.40 | 90383 | 105872
5 | 23:31.48 | 9:28.07 | 105873 | 148479
6 | 32:59.55 | 6:53.70 | 148480 | 179524
7 | 39:53.50 | 3:20.28 | 179525 | 194552
8 | 43:14.03 | 2:18.10 | 194553 | 204912
9 | 45:32.13 | 4:58.67 | 204913 | 227329
10 | 50:31.05 | 8:02.43 | 227330 | 263522
11 | 58:33.48 | 6:41.25 | 263523 | 293622

Характеристики диапазона извлечения и сообщения об ошибках

Выбранный диапазон

Имя файла D:РАЗДАЧИ!!!!Kraftwerk – The Mix (EU, CDP 1C 568-7 96650 2)- 1991Kraftwerk – The Mix (EU, CDP 1C 568-7 96650 2).wav

Пиковый уровень 100.0 %
Скорость извлечения 2.0 X
Качество диапазона 99.9 %
CRC теста D32C323F
CRC копии D32C323F
Копирование… OK

Ошибок не произошло

AccurateRip: сводка

Трек 1 : извлечено точно (доверие 121) [8F0FBEDA] (AR v2)
Трек 2 : извлечено точно (доверие 126) [C7E88401] (AR v2)
Трек 3 : извлечено точно (доверие 124) [8DCCEB68] (AR v2)
Трек 4 : извлечено точно (доверие 122) [EE3A649F] (AR v2)
Трек 5 : извлечено точно (доверие 120) [4DA4B466] (AR v2)
Трек 6 : извлечено точно (доверие 125) [45080B15] (AR v2)
Трек 7 : извлечено точно (доверие 124) [FD279BC9] (AR v2)
Трек 8 : извлечено точно (доверие 124) [E124F5F1] (AR v2)
Трек 9 : извлечено точно (доверие 121) [ADDE9107] (AR v2)
Трек 10 : извлечено точно (доверие 119) [6A75A75A] (AR v2)
Трек 11 : извлечено точно (доверие 119) [3E186A20] (AR v2)

Все треки извлечены точно

Конец отчёта

–– CUETools DB Plugin V2.1.6

[CTDB TOCID: e5ThmhHViIv7eGCjh2.6xRTy7rI-] found
Submit result: e5ThmhHViIv7eGCjh2.6xRTy7rI- has been confirmed
Track | CTDB Status
1 | (132/133) Accurately ripped
2 | (132/133) Accurately ripped
3 | (133/133) Accurately ripped
4 | (133/133) Accurately ripped
5 | (133/133) Accurately ripped
6 | (132/133) Accurately ripped
7 | (133/133) Accurately ripped
8 | (133/133) Accurately ripped
9 | (133/133) Accurately ripped
10 | (131/133) Accurately ripped
11 | (133/133) Accurately ripped

==== Контрольная сумма отчёта 07422381A03379AA3D74054C1B4B609C2B9DB8FFAC5B172D6563504C5B8CF6A5 ====

DR log
foobar2000 1.2 / Dynamic Range Meter 1.1.1
log date: 2017-07-11 00:05:23

––––––––––––––––––––––––––––––––––––––––
Analyzed: Kraftwerk / The Mix (EU, CDP 1C 568-7 96650 2)
––––––––––––––––––––––––––––––––––––––––

DR Peak RMS Duration Track
––––––––––––––––––––––––––––––––––––––––
DR15 -0.35 dB -17.22 dB 8:54 01-Die Roboter
DR14 -0.20 dB -15.59 dB 6:39 02-Computerliebe
DR14 -0.20 dB -15.91 dB 4:33 03-Taschenrechner
DR14 -0.20 dB -15.85 dB 3:27 04-Dentaku
DR13 -1.00 dB -16.14 dB 9:28 05-Autobahn
DR14 -0.20 dB -16.05 dB 6:54 06-Radioaktivitat
DR15 -0.54 dB -18.71 dB 3:20 07-Trans Europa Express
DR14 -0.50 dB -17.17 dB 2:18 08-Abzug
DR14 -0.07 dB -17.90 dB 4:59 09-Metall Auf Metall
DR14 -0.20 dB -16.09 dB 8:03 10-Heimcomputer
DR15 0.00 dB -17.09 dB 6:41 11-Musik Non Stop
––––––––––––––––––––––––––––––––––––––––

Number of tracks: 11
Official DR value: DR14

Samplerate: 44100 Hz
Channels: 2
Bits per sample: 16
Bitrate: 849 kbps
Codec: FLAC
================================================================================

Kraftwerk - The Mix (1991) English & German Versions [Non-Remastered] Re-Up

Kraftwerk - The Mix (1991) English & German Versions [Non-Remastered] Re-Up
All thanks to original releasers: Rattty for English Version; SergeyJD for German Version

More interesting music in My Blog

Kraftwerk – Kraftwerk (1970) [Unofficial CD Release, 1994]

Kraftwerk – Kraftwerk 2 (1972) [Unofficial CD Release, 1994]

Kraftwerk – Live On Radio Bremen, 1971 (2006) [Unofficial CD Release]

Kraftwerk – Ralf & Florian (1973) [Unofficial CD Release, 1995]

Kraftwerk – Autobahn (1974) Japanese Reissue 1998

Kraftwerk – Radio-Aktivitat (1975) [Non-Remastered]

Kraftwerk – Trans-Europe Express (1977) Japanese Reissue 1999

Kraftwerk – The Man-Machine (1978) [Non-Remastered] English Version

Kraftwerk – Computerwelt (1981)

Kraftwerk – Expo Remix (2001)

Kraftwerk – Tour De France Soundtracks (2003)

Kraftwerk – Der Katalog (1974-2003) (2009) 8 CD Box Set, Remastered

Kraftwerk – Minimum-Maximum (2005) 2CDs, Japanese Edition

Kraftwerk – The Mix (1991) English & German Versions [Non-Remastered] Re-Up Download, Warez, DDL, Free, Full Album, Torrent, Legal.

Download