Kraftwerk – Minimum-Maximum (2005) 2CDs, Japanese Edition [Re-Up]

Download
Kraftwerk - Minimum-Maximum (2005) 2CDs, Japanese Edition [Re-Up]

Kraftwerk – Minimum-Maximum (2005) 2CDs, Japanese Edition
EAC | FLAC | Image (Cue&Log) ~ 860 Mb (incl 5%) | Mp3 (CBR320) ~ 314 Mb (incl 5%) | Scans included
Genre: Experimental Electronic | Label: Toshiba EMI Ltd. | # TOCP 66425-26 | Time: 02:00:48

Minimum-Maximum is the first official live album release by Kraftwerk, released in June 2005, almost 35 years after the group gave their first live performance. It features two CDs and tracks recorded on their world tour during 2004, including concerts in Warsaw, Moscow, Berlin, London, Budapest, Tallinn, Riga, Tokyo and San Francisco. Minimum-Maximum was nominated for a Grammy Award for Best Electronic/Dance Album in 2006.

For rock bands, hauling gear across countries and continents has not changed a great deal in the past several decades. The same can’t be said for Kraftwerk. Grappling with sensitive cables and other technical gadgets in extreme climates has become a thing of the past. For them, everything has become easier to manage and transport, so it’s natural that they’d become more enthusiastic about touring. Recorded during the group’s 2004 journey through Europe, Japan, and the U.S., Minimum-Maximum is a two-disc representation of their revitalized live show. Visuals are such a crucial aspect of their performances that the set will naturally fall short of making you feel as if you are there – whether it’s Moscow, Warsaw, Budapest, or San Francisco – while in your car or living room. More crucially, who really knows exactly how much live manipulation is going on with the elements of each track? Whatever the case, it all sounds good – sharp, vibrant, alive. The original arrangements are often altered slightly, the tracks are tactfully sequenced, and the crowd noise is kept to a minimum (either near the close of a track or in recognition of one as it begins), so the release is sort of a glorified greatest-hits collection. Along with some wise selections from 2003’s Tour de France Soundtracks, there’s plenty of the expected classic material, all of which has given life to so much industrial, dance, and rap music. (You could, in fact, walk into the average techno club or turn on a mainstream radio station the week this was released and hear traces of Kraftwerk in one form or another.) "Radioactivity" and "The Robots," two of the more altered tracks, contain the greatest thrills; the former’s permafrost placidity spirals into a frictionless dancefloor charge, while the latter is more muscular than ever, acknowledging advancements made by acolytes Model 500 and Underground Resistance.

Review by Andy Kellman, Allmusic.com

Kraftwerk - Minimum-Maximum (2005) 2CDs, Japanese Edition [Re-Up]

Kraftwerk - Minimum-Maximum (2005) 2CDs, Japanese Edition [Re-Up]

Kraftwerk at Allmusic
Kraftwerk Website
Kraftwerk at Wiki

Tracklist:

CD1:

01. The Man-Machine (Warszawa Sala Kongresowa, 27.05.04) (7:55)
02. Planet Of Visions (Ljubljana Krizanke, 24.05.04) (4:46)
03. Tour De France Étape 1 (Riga Olimpiska Hall, 29.05.04) (4:22)
04. Chrono (Riga Olimpiska Hall, 29.05.04) (1:29)
05. Tour De France Étape 2 (Riga Olimpiska Hall, 29.05.04) (4:49)
06. Vitamin (Moskwa Lushniki, 03.06.04) (6:42)
07. Tour De France (Paris Le Grand Rex, 22.03.04) (6:18)
08. Autobahn (Berlin Tempodrom, 25.03.04) (8:52)
09. The Model (London Brixton Academy, 20.03.04) (3:41)
10. Neon Lights (London Royal Festival Hall, 18.03.04) (5:59)

CD2:

01. Radioactivity (Warszawa Sala Kongresowa, 27.05.04) (7:41)
02. Trans Europa Express (Budapest Sportarena, 25.05.04) (5:02)
03. Metal On Metal (Budapest Sportarena, 25.05.04) (4:29)
04 Numbers (San Francisco The Warfield, 28.04.04) (4:27)
05 Computerworld (Moskwa Lushniki, 03.06.04) (2:56)
06 Homecomputer (Warszawa Sala Kongresowa, 27.05.04) (5:55)
07 Pocket Calculator (Moskwa Lushniki, 03.06.04) (2:58)
08 Dentaku (Tokyo Shibuya Ax, 04.03.04) (3:15)
09 The Robots (Moskwa Lushniki, 03.06.04) (7:24)
10 Elektro Kardiogramm (Tallinn Exhibition Hall, 30.05.04) (4:41)
11 Aéro Dynamik (Riga Olimpiska Hall, 29.05.04) (7:14)
12 Music Non Stop (Moskwa Lushniki, 03.06.04) (9:52)

EAC log CD1
Exact Audio Copy V0.99 prebeta 4 from 23. January 2008

EAC extraction logfile from 10. June 2009, 11:56

Kraftwerk / Minimum – Maximum (Disc-1)

Used drive : _NEC DVD_RW ND-4570A Adapter: 1 ID: 0

Read mode : Secure
Utilize accurate stream : Yes
Defeat audio cache : Yes
Make use of C2 pointers : No

Read offset correction : 48
Overread into Lead-In and Lead-Out : No
Fill up missing offset samples with silence : Yes
Delete leading and trailing silent blocks : No
Null samples used in CRC calculations : Yes
Used interface : Native Win32 interface for Win NT & 2000

Used output format : User Defined Encoder
Selected bitrate : 1024 kBit/s
Quality : High
Add ID3 tag : No
Command line compressor : C:Program FilesFLACflac.exe

TOC of the extracted CD

Track | Start | Length | Start sector | End sector
––––––––––––––––––––––––––––-
1 | 0:00.00 | 7:55.23 | 0 | 35647
2 | 7:55.23 | 4:45.57 | 35648 | 57079
3 | 12:41.05 | 4:22.23 | 57080 | 76752
4 | 17:03.28 | 1:29.15 | 76753 | 83442
5 | 18:32.43 | 4:48.72 | 83443 | 105114
6 | 23:21.40 | 6:41.58 | 105115 | 135247
7 | 30:03.23 | 6:18.15 | 135248 | 163612
8 | 36:21.38 | 8:51.42 | 163613 | 203479
9 | 45:13.05 | 3:41.60 | 203480 | 220114
10 | 48:54.65 | 5:58.39 | 220115 | 247003
11 | 57:25.29 | 16:32.46 | 258404 | 332849

Range status and errors

Selected range

Filename E:раздачаMinimum – Maximum (Japan)CD 1Kraftwerk – Minimum – Maximum (Disc-1).wav

Peak level 96.6 %
Range quality 99.9 %
Test CRC EE5CC361
Copy CRC EE5CC361
Copy OK

No errors occurred

AccurateRip summary

Track 1 accurately ripped (confidence 34) [C003F97D]
Track 2 accurately ripped (confidence 33) [048F17E8]
Track 3 accurately ripped (confidence 35) [11281F70]
Track 4 accurately ripped (confidence 36) [72FFC76D]
Track 5 accurately ripped (confidence 36) [6A0AB9E6]
Track 6 accurately ripped (confidence 35) [ACD95CE2]
Track 7 accurately ripped (confidence 34) [A55E297E]
Track 8 accurately ripped (confidence 36) [06824C47]
Track 9 accurately ripped (confidence 36) [FBDE96C4]
Track 10 accurately ripped (confidence 37) [4D03C98C]

All tracks accurately ripped

End of status report

DR log CD1
foobar2000 1.2 / Dynamic Range Meter 1.1.1
log date: 2014-03-15 17:10:08

––––––––––––––––––––––––––––––––––––––––
Analyzed: Kraftwerk / Minimum – Maximum (Disc-1)
––––––––––––––––––––––––––––––––––––––––

DR Peak RMS Duration Track
––––––––––––––––––––––––––––––––––––––––
DR9 -0.30 dB -11.94 dB 7:55 01-The Man-Machine
DR9 -0.53 dB -10.82 dB 4:46 02-Planet Of Visions
DR10 -0.54 dB -11.50 dB 4:22 03-Tour De France Etape 1
DR10 -0.51 dB -12.41 dB 1:29 04-Chrono
DR9 -0.43 dB -10.89 dB 4:49 05-Tour De France Etape 2
DR9 -0.42 dB -10.13 dB 6:42 06-Vitamin
DR11 -0.44 dB -12.35 dB 6:18 07-Tour De France
DR8 -0.30 dB -9.56 dB 8:52 08-Autobahn
DR11 -0.38 dB -12.03 dB 3:42 09-The Model
DR10 -0.55 dB -11.85 dB 5:59 10-Neon Lights
––––––––––––––––––––––––––––––––––––––––

Number of tracks: 10
Official DR value: DR10

Samplerate: 44100 Hz
Channels: 2
Bits per sample: 16
Bitrate: 882 kbps
Codec: FLAC
================================================================================

EAC log CD2
Exact Audio Copy V0.99 prebeta 4 from 23. January 2008

EAC extraction logfile from 10. June 2009, 13:28

Kraftwerk / Minimum-Maximum

Used drive : _NEC DVD_RW ND-4570A Adapter: 1 ID: 0

Read mode : Secure
Utilize accurate stream : Yes
Defeat audio cache : Yes
Make use of C2 pointers : No

Read offset correction : 48
Overread into Lead-In and Lead-Out : No
Fill up missing offset samples with silence : Yes
Delete leading and trailing silent blocks : No
Null samples used in CRC calculations : Yes
Used interface : Native Win32 interface for Win NT & 2000

Used output format : User Defined Encoder
Selected bitrate : 1024 kBit/s
Quality : High
Add ID3 tag : No
Command line compressor : C:Program FilesFLACFLAC frontend.exe

TOC of the extracted CD

Track | Start | Length | Start sector | End sector
––––––––––––––––––––––––––––-
1 | 0:00.00 | 7:41.64 | 0 | 34638
2 | 7:41.64 | 5:01.54 | 34639 | 57267
3 | 12:43.43 | 4:28.50 | 57268 | 77417
4 | 17:12.18 | 4:27.48 | 77418 | 97490
5 | 21:39.66 | 2:55.45 | 97491 | 110660
6 | 24:35.36 | 5:55.12 | 110661 | 137297
7 | 30:30.48 | 2:58.00 | 137298 | 150647
8 | 33:28.48 | 3:15.03 | 150648 | 165275
9 | 36:43.51 | 7:23.56 | 165276 | 198556
10 | 44:07.32 | 4:41.15 | 198557 | 219646
11 | 48:48.47 | 7:14.00 | 219647 | 252196
12 | 56:02.47 | 9:52.05 | 252197 | 296601
13 | 68:26.52 | 5:31.23 | 308002 | 332849

Range status and errors

Selected range

Filename E:раздачаMinimum – Maximum (Japan)CD 2Kraftwerk – Minimum-Maximum.wav

Peak level 96.6 %
Range quality 100.0 %
Test CRC 11A01135
Copy CRC 11A01135
Copy OK

No errors occurred

AccurateRip summary

Track 1 not present in database
Track 2 not present in database
Track 3 not present in database
Track 4 not present in database
Track 5 not present in database
Track 6 not present in database
Track 7 not present in database
Track 8 not present in database
Track 9 not present in database
Track 10 not present in database
Track 11 not present in database
Track 12 not present in database

None of the tracks are present in the AccurateRip database

End of status report

DR log CD2
foobar2000 1.2 / Dynamic Range Meter 1.1.1
log date: 2014-03-15 17:10:45

––––––––––––––––––––––––––––––––––––––––
Analyzed: Kraftwerk / Minimum-Maximum
––––––––––––––––––––––––––––––––––––––––

DR Peak RMS Duration Track
––––––––––––––––––––––––––––––––––––––––
DR10 -0.30 dB -12.00 dB 7:42 01- Radioactivity
DR11 -0.56 dB -12.82 dB 5:02 02-Trans Europa Express
DR11 -0.56 dB -13.29 dB 4:29 03-Metal On Metal
DR10 -0.57 dB -12.38 dB 4:28 04-Numbers
DR9 -0.30 dB -10.83 dB 2:56 05-Computerworld
DR9 -0.59 dB -11.05 dB 5:55 06-Homecomputer
DR10 -0.58 dB -12.49 dB 2:58 07-Pocket Calculator
DR10 -0.30 dB -11.71 dB 3:15 08-Dentaku
DR10 -0.60 dB -11.66 dB 7:24 09-The Robots
DR10 -0.60 dB -11.91 dB 4:41 10-Elektro Kardiogramm
DR9 -0.31 dB -11.01 dB 7:14 11-Aero Dynamik
DR10 -0.56 dB -11.82 dB 9:52 12-Music Non Stop
––––––––––––––––––––––––––––––––––––––––

Number of tracks: 12
Official DR value: DR10

Samplerate: 44100 Hz
Channels: 2
Bits per sample: 16
Bitrate: 950 kbps
Codec: FLAC
================================================================================

Kraftwerk - Minimum-Maximum (2005) 2CDs, Japanese Edition [Re-Up]

Kraftwerk - Minimum-Maximum (2005) 2CDs, Japanese Edition [Re-Up]

All thanks to original releaser – unbalance

More interesting music in My Blog

Kraftwerk – Kraftwerk (1970) [Unofficial CD Release, 1994]

Kraftwerk – Kraftwerk 2 (1972) [Unofficial CD Release, 1994]

Kraftwerk – Live On Radio Bremen, 1971 (2006) [Unofficial CD Release]

Kraftwerk – Ralf & Florian (1973) [Unofficial CD Release, 1995]

Kraftwerk – Autobahn (1974) Japanese Reissue 1998

Kraftwerk – Radio-Aktivitat (1975) Non-Remastered

Kraftwerk – Trans-Europe Express (1977) Japanese Reissue 1999

Kraftwerk – The Man-Machine (1978) None-Remastered English Version

Kraftwerk – Computerwelt (1981)

Kraftwerk – Tour De France Soundtracks (2003)

Kraftwerk – Der Katalog (1974-2003) (2009) 8 CD Box Set, Remastered

Kraftwerk – Minimum-Maximum (2005) 2CDs, Japanese Edition [Re-Up] Download, Warez, DDL, Free, Full Album, Torrent, Legal.

Tags:

  • kraftwerk torrent
Download