Kraftwerk – Electric Cafe (1986) [Non-Remastered English Version] Re-Up

Download
Kraftwerk - Electric Cafe (1986) [Non-Remastered English Version] Re-Up

Kraftwerk – Electric Cafe (1986) [Non-Remastered English Version]
EAC | FLAC | Tracks (Cue&Log) ~ 203 Mb | Mp3 (CBR320) ~ 94 Mb | Scans included | 00:35:38
Experimental Electronic, Techno-pop, Synth-pop | Label: Warner/Elektra | # 9 25525-2/25525-2

The byproduct of a much anticipated, long-delayed, and ultimately scrapped album to have been called Technopop (and to have contained Kraftwerk’s great dance single "Tour de France"), 1986’s Electric Cafe suffers only slightly from lacking the thematic focus of previous Kraftwerk albums. Ironically, the ’80s techno-pop wave had passed by band founders Florian Schneider and Ralf Hutter at this point, but their sly wit ("Boing Boom Tschak," "Telephone," "Sex Object") and melodic inventiveness still stand the test of time. Its segues virtually seamless, Electric Cafe plays like one mega-dance-mix, but with the tasteful restraint that has long been a Kraftwerk hallmark. This is club music for thinking men and women.

Review by Jerry McCulley

Five long years after Computer World, Kraftwerk finally resurfaced with another LP, Electric Cafe; the rest of the pop music industry having finally caught up with the group’s vision, they no longer seem so innovative and inspired – indeed, the record’s brief running time (under 36 minutes) seems indicative of a lack of ideas and new directions, with the spartan opening tracks, "Technopop" and "Musique Non-Stop," virtually interchangeable and the remaining cuts surprisingly mainstream in both form and content.

Review by Jason Ankeny, Allmusic.com

Kraftwerk - Electric Cafe (1986) [Non-Remastered English Version] Re-Up

Kraftwerk at Allmusic
Kraftwerk Website
Kraftwerk at Wiki

Tracklist:

01. Boing Boom Tschak (02:57)
02. Techno Pop (07:41)
03. Musique Non Stop (05:45)
04. The Telefone Call (08:03)
05. Sex Object (06:51)
06. Electric Cafe (04:16)

EAC log
Exact Audio Copy V0.99 prebeta 5 from 4. May 2009

Отчёт EAC об извлечении, выполненном 31. октября 2009, 23:08

Kraftwerk / Electric Cafe

Дисковод: TSSTcorpCD/DVDW SH-S182M Adapter: 0 ID: 0

Режим чтения : Достоверность
Использование точного потока : Да
Отключение кэша аудио : Да
Использование указателей C2 : Нет

Коррекция смещения при чтении : 6
Способность читать области Lead-in и Lead-out : Нет
Заполнение пропущенных сэмплов тишиной : Да
Удаление блоков с тишиной в начале и конце : Нет
При вычислениях CRC использовались нулевые сэмплы : Да
Интерфейс : Встроенный Win32-интерфейс для Win NT/2000

Выходной формат : Пользовательский кодировщик
Выбранный битрейт : 768 kBit/s
Качество : Высокий
Добавление ID3-тэга : Нет
Утилита сжатия : C:Program FilesExact Audio CopyFLACFLAC.EXE
Дополнительные параметры : -6 -V -T "ARTIST=%a" -T "TITLE=%t" -T "ALBUM=%g" -T "DATE=%y" -T "TRACKNUMBER=%n" -T "GENRE=%m" -T "COMMENT=%e" %s -o %d

TOC извлечённого CD

Трек | Старт | Длительность | Начальный сектор | Конечный сектор
––––––––––––––––––––––––––––––––––-
1 | 0:00.32 | 2:57.53 | 32 | 13359
2 | 2:58.10 | 7:41.40 | 13360 | 47974
3 | 10:39.50 | 5:46.20 | 47975 | 73944
4 | 16:25.70 | 8:03.70 | 73945 | 110239
5 | 24:29.65 | 6:52.22 | 110240 | 141161
6 | 31:22.12 | 4:16.25 | 141162 | 160386

Характеристики диапазона извлечения и сообщения об ошибках

Выбранный диапазон

Имя файла C:Documents and SettingsUserМои документыCode1986 Kraftwerk Electric CafeKraftwerk – Electric Cafe.wav

Пиковый уровень 99.4 %
Качество диапазона 99.9 %
CRC теста ED348440
CRC копии ED348440
Копирование… OK

Ошибок не произошло

AccurateRip: сводка

Трек 1 точное извлечение (доверие 11) [B1DB7C34]
Трек 2 точное извлечение (доверие 11) [C3C6FB84]
Трек 3 точное извлечение (доверие 11) [3E0483DE]
Трек 4 точное извлечение (доверие 11) [21039EFA]
Трек 5 точное извлечение (доверие 11) [74C8345A]
Трек 6 точное извлечение (доверие 10) [B2A63CFB]

Все треки извлечены точно

Конец отчёта

DR log
foobar2000 1.2 / Dynamic Range Meter 1.1.1
log date: 2014-03-09 22:04:26

––––––––––––––––––––––––––––––––––––––––
Analyzed: Kraftwerk / Electric Cafe
––––––––––––––––––––––––––––––––––––––––

DR Peak RMS Duration Track
––––––––––––––––––––––––––––––––––––––––
DR16 -0.43 dB -18.69 dB 2:58 01-Boing Boom Tschak
DR14 -1.51 dB -19.84 dB 7:42 02-Techno Pop
DR17 -0.05 dB -18.47 dB 5:46 03-Musique Non Stop
DR15 -0.21 dB -18.74 dB 8:04 04-The Telefone Call
DR16 -1.10 dB -19.29 dB 6:52 05-Sex Object
DR14 -2.31 dB -18.55 dB 4:16 06-Electric Cafe
––––––––––––––––––––––––––––––––––––––––

Number of tracks: 6
Official DR value: DR15

Samplerate: 44100 Hz
Channels: 2
Bits per sample: 16
Bitrate: 748 kbps
Codec: FLAC
================================================================================

Kraftwerk - Electric Cafe (1986) [Non-Remastered English Version] Re-Up

All thanks to original releaser – DENKAS

More interesting music in My Blog

Kraftwerk – Kraftwerk (1970) [Unofficial CD Release, 1994]

Kraftwerk – Kraftwerk 2 (1972) [Unofficial CD Release, 1994]

Kraftwerk – Live On Radio Bremen, 1971 (2006) [Unofficial CD Release]

Kraftwerk – Ralf & Florian (1973) [Unofficial CD Release, 1995]

Kraftwerk – Autobahn (1974) Japanese Reissue 1998

Kraftwerk – Radio-Aktivitat (1975) [Non-Remastered]

Kraftwerk – Trans-Europe Express (1977) Japanese Reissue 1999

Kraftwerk – The Man-Machine (1978) [Non-Remastered] English Version

Kraftwerk – Computerwelt (1981)

Kraftwerk – The Mix (1991) English & German Versions [Non-Remastered]

Kraftwerk – Expo Remix (2001)

Kraftwerk – Tour De France Soundtracks (2003)

Kraftwerk – Minimum-Maximum (2005) 2CDs, Japanese Edition

Kraftwerk – Der Katalog (1974-2003) (2009) 8 CD Box Set, Remastered

Kraftwerk – Electric Cafe (1986) [Non-Remastered English Version] Re-Up Download, Warez, DDL, Free, Full Album, Torrent, Legal.

Download