Koldvoid – Roadside Ghosts (2012)

Download
Koldvoid - Roadside Ghosts (2012)

Koldvoid – Roadside Ghosts (2012)
EAC Rip | FLAC (tracks+.cue+log) – 240 MB | MP3 CBR 320 kbps (LAME 3.93) – 125 MB | Covers – 61 MB
Genre: Ambient | RAR 3% Rec. | Label: Valse Sinistre (Valse 003)

Koldvoid is a cinematic ambient from Romania, strongly influenced by movies/film noir, some of the tracks easily reminding you the dark and twisted movies of David Lynch. Imagine a sound-collage built up of small pieces which combined results in a dramatic soundscape. Sounds vary from calm & discrete ambient and piano parts through cold industrial vibes to spacey and even disturbing atmospheres.

Tracklist:
01. Start
02. Equilibrium
03. Phantasma
04. Nostalgia
05. Ephemeral
06. Dream
07. Arctic Silence
08. Eyes Of The Bottom-People
09. Radiance
10. Sailing Without Sails
11. End

Total time: 53:23

EAC log
Exact Audio Copy V1.0 beta 2 from 29. April 2011

EAC extraction logfile from 4. March 2013, 17:15

Koldvoid / Roadside Ghosts

Used drive : Optiarc DVD RW AD-5280S Adapter: 1 ID: 1

Read mode : Secure
Utilize accurate stream : Yes
Defeat audio cache : Yes
Make use of C2 pointers : No

Read offset correction : 48
Overread into Lead-In and Lead-Out : No
Fill up missing offset samples with silence : Yes
Delete leading and trailing silent blocks : No
Null samples used in CRC calculations : Yes
Used interface : Native Win32 interface for Win NT & 2000
Gap handling : Appended to previous track

Used output format : User Defined Encoder
Selected bitrate : 128 kBit/s
Quality : High
Add ID3 tag : No
Command line compressor : C:Program FilesFLACflac.exe
Additional command line options : -V -8 -T "Genre=%genre%" -T "Artist=%artist%" -T "Title=%title%" -T "Album=%albumtitle%" -T "Date=%year%" -T "Tracknumber=%tracknr%" -T "Comment=%comment%" %source%

TOC of the extracted CD

Track | Start | Length | Start sector | End sector
––––––––––––––––––––––––––––-
1 | 0:00.00 | 1:15.51 | 0 | 5675
2 | 1:15.51 | 4:22.19 | 5676 | 25344
3 | 5:37.70 | 6:50.59 | 25345 | 56153
4 | 12:28.54 | 7:01.66 | 56154 | 87794
5 | 19:30.45 | 4:01.74 | 87795 | 105943
6 | 23:32.44 | 3:02.16 | 105944 | 119609
7 | 26:34.60 | 8:53.48 | 119610 | 159632
8 | 35:28.33 | 2:04.15 | 159633 | 168947
9 | 37:32.48 | 9:01.41 | 168948 | 209563
10 | 46:34.14 | 4:55.05 | 209564 | 231693
11 | 51:29.19 | 1:54.31 | 231694 | 240274

Track 1

Filename C:Koldvoid (2012) – Roadside Ghosts1 – Start.wav

Pre-gap length 0:00:02.00

Peak level 100.0 %
Extraction speed 1.3 X
Track quality 99.8 %
Test CRC 58693599
Copy CRC 58693599
Track not present in AccurateRip database
Copy OK

Track 2

Filename C:Koldvoid (2012) – Roadside Ghosts2 – Equilibrium.wav

Peak level 67.4 %
Extraction speed 2.2 X
Track quality 99.9 %
Test CRC 9E2EF7F7
Copy CRC 9E2EF7F7
Track not present in AccurateRip database
Copy OK

Track 3

Filename C:Koldvoid (2012) – Roadside Ghosts3 – Phantasma.wav

Peak level 100.0 %
Extraction speed 3.0 X
Track quality 100.0 %
Test CRC 3350918D
Copy CRC 3350918D
Track not present in AccurateRip database
Copy OK

Track 4

Filename C:Koldvoid (2012) – Roadside Ghosts4 – Nostalgia.wav

Peak level 100.0 %
Extraction speed 3.4 X
Track quality 100.0 %
Test CRC 301AB828
Copy CRC 301AB828
Track not present in AccurateRip database
Copy OK

Track 5

Filename C:Koldvoid (2012) – Roadside Ghosts5 – Ephemeral.wav

Peak level 100.0 %
Extraction speed 3.1 X
Track quality 99.9 %
Test CRC 39C9C826
Copy CRC 39C9C826
Track not present in AccurateRip database
Copy OK

Track 6

Filename C:Koldvoid (2012) – Roadside Ghosts6 – Dream.wav

Peak level 83.4 %
Extraction speed 3.5 X
Track quality 100.0 %
Test CRC 161FD655
Copy CRC 161FD655
Track not present in AccurateRip database
Copy OK

Track 7

Filename C:Koldvoid (2012) – Roadside Ghosts7 – Arctic Silence.wav

Peak level 100.0 %
Extraction speed 4.3 X
Track quality 100.0 %
Test CRC CF26188A
Copy CRC CF26188A
Track not present in AccurateRip database
Copy OK

Track 8

Filename C:Koldvoid (2012) – Roadside Ghosts8 – Eyes of the Bottom-People.wav

Peak level 100.0 %
Extraction speed 3.7 X
Track quality 100.0 %
Test CRC 7BA16A54
Copy CRC 7BA16A54
Track not present in AccurateRip database
Copy OK

Track 9

Filename C:Koldvoid (2012) – Roadside Ghosts9 – Radiance.wav

Peak level 77.2 %
Extraction speed 4.7 X
Track quality 100.0 %
Test CRC EE6FAEFF
Copy CRC EE6FAEFF
Track not present in AccurateRip database
Copy OK

Track 10

Filename C:Koldvoid (2012) – Roadside Ghosts10 – Sailing Without Sails.wav

Peak level 100.0 %
Extraction speed 4.8 X
Track quality 100.0 %
Test CRC 0DCAA621
Copy CRC 0DCAA621
Track not present in AccurateRip database
Copy OK

Track 11

Filename C:Koldvoid (2012) – Roadside Ghosts11 – End.wav

Peak level 100.0 %
Extraction speed 4.1 X
Track quality 100.0 %
Test CRC 5B8F94D6
Copy CRC 5B8F94D6
Track not present in AccurateRip database
Copy OK

None of the tracks are present in the AccurateRip database

No errors occurred

End of status report

==== Log checksum B5BF22ED6E7C950D1F492DED88B77CA80C79C0DD90D3BB26930A4A3AC9281219 ====

CUETools log
[CUETools log; Date: 30.07.2017 0:14:14; Version: 2.1.4]
[CTDB TOCID: vFT74k9tOL2fhQ95x.P49uXO13M-] disk not present in database.
[AccurateRip ID: 0015864e-00bf7bdb-8d0c830b] found.
Track [ CRC | V2 ] Status
01 [2dc6e86f|b2adef02] (0+1/1) Accurately ripped
02 [6eb54401|1ed1e24e] (0+1/1) Accurately ripped
03 [e864165d|caa0c5cd] (0+1/1) Accurately ripped
04 [06e89a82|4be36091] (0+1/1) Accurately ripped
05 [ac15d814|a7ee08ce] (0+1/1) Accurately ripped
06 [16605057|bf643ee0] (0+1/1) Accurately ripped
07 [21298615|f453e480] (0+1/1) Accurately ripped
08 [3e7a982e|16c1b4df] (0+1/1) Accurately ripped
09 [fa3e344b|2c4f3be7] (0+1/1) Accurately ripped
10 [5f3f2ea2|2b24a902] (0+1/1) Accurately ripped
11 [1b33d5c9|a801d20e] (0+1/1) Accurately ripped

Track Peak [ CRC32 ] [W/O NULL] [ LOG ]
– 100,0 [649A415F] [7776FF2A]
01 100,0 [58693599] [F848ED7F] CRC32
02 67,4 [9E2EF7F7] [A3C54D3C] CRC32
03 100,0 [3350918D] [A4AD0C09] CRC32
04 100,0 [301AB828] [FEEC867C] CRC32
05 100,0 [39C9C826] [652694D0] CRC32
06 83,4 [161FD655] [E4F9F488] CRC32
07 100,0 [CF26188A] [D77566D2] CRC32
08 100,0 [7BA16A54] [6F976C44] CRC32
09 77,2 [EE6FAEFF] [E7EEA6B5] CRC32
10 100,0 [0DCAA621] [AFF53B7E] CRC32
11 100,0 [5B8F94D6] [0BAC7270] CRC32

Thanks to gssmg7

Welcome to My Blog!

Koldvoid – Roadside Ghosts (2012) Download, Warez, DDL, Free, Full Album, Torrent, Legal.

Download