Kitaro – The Light of the Spirit (1987) Remastered 1997

Download
Kitaro - The Light of the Spirit (1987) Remastered 1997

Kitaro – The Light of the Spirit (1987) Remastered 1997
EAC | FLAC | Image (Cue&Log) ~ 287 Mb | Mp3 (CBR320) ~ 119 Mb | Scans included | 00:48:50
Progressive Electronic, New Age, Ambient, Ethnic Fusion | Label: DOMO | # 71061-2

The Light of the Spirit is one of Kitaro’s best CDs. Perhaps it is because Mickey Hart co-produced, or perhaps Kitaro asked Hart to co-produce because it is so good. It doesn’t really matter if either of those is the reason; this is just an awesome CD. Kitaro’s specialty has always been the symphonic synth and this is no exception. He augments that synth with several guest musicians on a variety of ambient instruments. This is truly ambient music, albeit on the new age side of that style. The vocal accompaniment by Lynn Ray and Jeannie Tracy counts as instrumental as well. The sound design treats the wordless vocals as an extra sound to incorporate. David Jenkins contributes a smoking electric guitar that gives this rock & roll textures as well. This disc stands proudly with work by Constance Demby, Vangelis, Suzanne Ciani, and Dean Evenson as some of the best adult contemporary instrumental new age music.

Review by Allmusic.com, Allmusic.com

Kitaro - The Light of the Spirit (1987) Remastered 1997

Kitaro at Allmusic
Kitaro Website
Kitaro at Wiki

Tracklist:

01. Mysterious Encounter (6:04)
02. Sundance (6:18)
03. The Field (4:56)
04. The Light Of The Spirit (7:30)
05. In The Beginning (5:55)
06. Moondance (4:44)
07. Howling Thunder (6:10)
08. Journey To A Fantasy (7:13)

EAC log
Exact Audio Copy V0.99 prebeta 4 from 23. January 2008

Отчёт EAC об извлечении, выполненном 3. мая 2009, 19:01

Kitaro / The Light Of The Spirit [20 bit remastered]

Дисковод: TSSTcorpCD/DVDW SH-S183A Adapter: 4 ID: 1

Режим чтения : Достоверность
Использование точного потока : Да
Отключение кэша аудио : Да
Использование указателей C2 : Нет

Коррекция смещения при чтении : 6
Способность читать области Lead-in и Lead-out : Нет
Заполнение пропущенных сэмплов тишиной : Да
Удаление блоков с тишиной в начале и конце : Нет
При вычислениях CRC использовались нулевые сэмплы : Да
Интерфейс : Установленный внешний ASPI-интерфейс

Выходной формат : Внутренние WAV-операции
Формат сэмплов : 44.100 Гц; 16 бит; стерео
Смещение при сжатии : 0

TOC извлечённого CD

Трек | Старт | Длительность | Начальный сектор | Конечный сектор
––––––––––––––––––––––––––––––––––-
1 | 0:00.00 | 6:04.11 | 0 | 27310
2 | 6:04.11 | 6:18.34 | 27311 | 55694
3 | 12:22.45 | 4:55.43 | 55695 | 77862
4 | 17:18.13 | 7:29.45 | 77863 | 111582
5 | 24:47.58 | 5:54.73 | 111583 | 138205
6 | 30:42.56 | 4:44.04 | 138206 | 159509
7 | 35:26.60 | 6:09.73 | 159510 | 187257
8 | 41:36.58 | 7:12.71 | 187258 | 219728

Характеристики диапазона извлечения и сообщения об ошибках

Выбранный диапазон

Имя файла D:TEMPKitaro – The Light Of The Spirit [20 bit remastered].wav

Пиковый уровень 100.0 %
Качество диапазона 100.0 %
CRC теста 54A12CC9
CRC копии 54A12CC9
Копирование… OK

Ошибок не произошло

AccurateRip: сводка

Трек 1 нет в базе данных
Трек 2 нет в базе данных
Трек 3 нет в базе данных
Трек 4 нет в базе данных
Трек 5 нет в базе данных
Трек 6 нет в базе данных
Трек 7 нет в базе данных
Трек 8 нет в базе данных

Ни одного трека нет в базе AccurateRip

Конец отчёта

AR log
[CUETools log; Date: 13.07.2017 3:07:32; Version: 2.1.4]
[CTDB TOCID: W77aPbWYGnGQRrmiYMSythjtRyk-] found.
Track | CTDB Status
1 | (26/29) Accurately ripped
2 | (27/29) Accurately ripped
3 | (28/29) Accurately ripped
4 | (28/29) Accurately ripped
5 | (28/29) Accurately ripped
6 | (28/29) Accurately ripped
7 | (27/29) Accurately ripped
8 | (28/29) Accurately ripped
[AccurateRip ID: 000ee903-00635f7a-700b7108] found.
Track [ CRC | V2 ] Status
01 [c6bbc69a|83eeed32] (00+00/21) No match
02 [b044acf2|d61b6332] (00+00/21) No match
03 [f2103e5a|50bd723b] (00+00/21) No match
04 [0b479bbc|0be60698] (00+00/21) No match
05 [b5def60b|4848ff62] (00+00/21) No match
06 [f1b587f0|878b09c4] (00+00/21) No match
07 [f02bea30|a134bf92] (00+00/21) No match
08 [f7a413bd|cc2b48fd] (00+00/19) No match
Offsetted by -612:
01 [47306bfd] (02/21) Accurately ripped
02 [47aded97] (02/21) Accurately ripped
03 [68f03e2c] (02/21) Accurately ripped
04 [07b09136] (02/21) Accurately ripped
05 [f925e99b] (02/21) Accurately ripped
06 [b1a54d2b] (02/21) Accurately ripped
07 [8e2c6e12] (02/21) Accurately ripped
08 [5d1077a0] (02/19) Accurately ripped
Offsetted by 429:
01 [2b96f7dd] (02/21) Accurately ripped
02 [3f7e9356] (02/21) Accurately ripped
03 [7aa557a3] (02/21) Accurately ripped
04 [f2370f60] (02/21) Accurately ripped
05 [99a30208] (02/21) Accurately ripped
06 [9ca5da1c] (02/21) Accurately ripped
07 [3879516b] (02/21) Accurately ripped
08 [043350f7] (02/19) Accurately ripped
Offsetted by 2354:
01 [3af543c6] (03/21) Accurately ripped
02 [acf87b98] (03/21) Accurately ripped
03 [8d314daf] (03/21) Accurately ripped
04 [08422aa0] (03/21) Accurately ripped
05 [bdcdcbd3] (03/21) Accurately ripped
06 [04fb0224] (03/21) Accurately ripped
07 [5989a7ad] (03/21) Accurately ripped
08 [ce309eb1] (03/19) Accurately ripped
Offsetted by -217:
01 [b352f5e0] (00/21) No match (V2 was not tested)
02 [60f28f4b] (00/21) No match (V2 was not tested)
03 [d84c18f0] (00/21) No match (V2 was not tested)
04 [737cdfbe] (00/21) No match (V2 was not tested)
05 [17e1928b] (00/21) No match (V2 was not tested)
06 [5c3518f5] (00/21) No match (V2 was not tested)
07 [1d0fd6bf] (00/21) No match (V2 was not tested)
08 [998ce020] (00/19) No match (V2 was not tested)
Offsetted by 238:
01 [be70b0f0] (00/21) No match (V2 was not tested)
02 [48666379] (00/21) No match (V2 was not tested)
03 [d60a9969] (00/21) No match (V2 was not tested)
04 [67f6804c] (00/21) No match (V2 was not tested)
05 [9efc4da7] (00/21) No match (V2 was not tested)
06 [359f4b1c] (00/21) No match (V2 was not tested)
07 [2eb3eb4c] (00/21) No match (V2 was not tested)
08 [f5e8b1c5] (00/19) No match (V2 was not tested)
Offsetted by 447:
01 [d6eb0cf1] (00/21) No match (V2 was not tested)
02 [fc1b82e6] (00/21) No match (V2 was not tested)
03 [ab836df9] (00/21) No match (V2 was not tested)
04 [ff52795d] (00/21) No match (V2 was not tested)
05 [026c6034] (00/21) No match (V2 was not tested)
06 [3cebf98a] (00/21) No match (V2 was not tested)
07 [c0f4cd69] (00/21) No match (V2 was not tested)
08 [1442fbfc] (00/19) No match (V2 was not tested)

Track Peak [ CRC32 ] [W/O NULL] [ LOG ]
– 100,0 [54A12CC9] [9D7833ED] CRC32
01 97,7 [7AB96FF1] [DB24B8D8]
02 97,7 [090048E6] [FDA18F56]
03 62,0 [468A9748] [E624D632]
04 100,0 [BA932C5E] [83E24F01]
05 100,0 [896882F1] [47DC2ACB]
06 98,8 [76F76A74] [C6146C9E]
07 98,8 [32D75671] [B996707A]
08 98,8 [E5E25341] [21197F2E]

DR log
foobar2000 1.2 / Dynamic Range Meter 1.1.1
log date: 2017-07-13 02:57:59

––––––––––––––––––––––––––––––––––––––––
Analyzed: Kitaro / The Light Of The Spirit [20 bit remastered]
––––––––––––––––––––––––––––––––––––––––

DR Peak RMS Duration Track
––––––––––––––––––––––––––––––––––––––––
DR11 -0.20 dB -17.24 dB 6:04 01-Mysterious Encounter
DR11 -0.20 dB -13.64 dB 6:18 02-Sundance
DR12 -4.15 dB -19.30 dB 4:56 03-The Field
DR12 0.00 dB -14.55 dB 7:30 04-The Light Of The Spirit
DR12 0.00 dB -16.76 dB 5:55 05-In The Beginning
DR11 -0.10 dB -13.85 dB 4:44 06-Moondance
DR13 -0.10 dB -14.88 dB 6:10 07-Howling Thunder
DR11 -0.10 dB -13.63 dB 7:13 08-Journey To A Fantasy
––––––––––––––––––––––––––––––––––––––––

Number of tracks: 8
Official DR value: DR11

Samplerate: 44100 Hz
Channels: 2
Bits per sample: 16
Bitrate: 799 kbps
Codec: FLAC
================================================================================

Kitaro - The Light of the Spirit (1987) Remastered 1997

Kitaro - The Light of the Spirit (1987) Remastered 1997

All thanks to original releaser – spAceLover

More interesting music in My Blog

Kitaro – Albums Collection 1979-1993 [Geffen Records Releases] (13CD)

Kitaro – Ki (1980) Remastered 1996

Kitaro – The Light of the Spirit (1987) Remastered 1997 Download, Warez, DDL, Free, Full Album, Torrent, Legal.

Download