Kitaro – Ki (1980) Remastered 1996

Download
Kitaro - Ki (1980) Remastered 1996

Kitaro – Ki (1980) Remastered 1996
EAC | FLAC | Image (Cue&Log) ~ 261 Mb | Mp3 (CBR320) ~ 108 Mb | Scans included | 00:44:10
Progressive Electronic, New Age, Ambient, Ethnic Fusion | Label: DOMO | # 71057-2

Sensitively woven, tranquil textures of sound wash through the mind of the listener on this album from sound master Kitaro. The instrumentation includes synthesizers, slide guitar, mellotron, percussion, tabla and Irish harp.

Allmusic.com

In 1985, I walked into a bookstore in Lewiston, Maine, and thought I was hearing music from the heavenly spheres. They were playing "Ki", and I became a Kitaro fan from that day on.

Of all my many Kitaro CDs, "Ki" is still my favorite…the one I have 2 copies of, as it’s one of the 8 CDs I keep in the car.

I’m one of those that tend to prefer the "pre-U.S.A." Kitaro. Of his recordings, and sadly many are out of print at this time, "Oasis" (track # 4 on "Ki" is same glorious track # 10 theme of the "Oasis" CD), "Asia", "Full Moon Story", and "Silk Road Vol. 1" fill out the top 5 choices for me, and "Ki" of all of them succeeds the best in being a continuous flow of exquisite, soul-filling melody.

The enclosed leaflet says that on this recording Kitaro plays Korg, Roland, Yamaha, Prophet and Mini Moog synthesizers, acoustic guitar, slide guitar, mellotron, drums, percussion, tabla, and Irish harp. The remastered sound is good, and total time 44’12.

Kitaro was a pioneer…it’s thought that he was the first to create "New Age" as a musical category. He has had many imitators, but few equals. If you want one of his finest CDs, "Ki" is one to consider buying.

Review by Alejandra Vernon, Amazon.com

Kitaro - Ki (1980) Remastered 1996

Kitaro at Allmusic
Kitaro Website
Kitaro at Wiki

Tracklist:

01. Revelation (6:59)
02. Stream Of Being (4:13)
03. Kaleidoscope (6:22)
04. Oasis (5:28)
05. Sun (5:00)
06. Endless Water (3:45)
07. Tree (3:50)
08. Cloud In The Sky (8:35)

EAC log
Exact Audio Copy V0.99 prebeta 4 from 23. January 2008

Отчёт EAC об извлечении, выполненном 23. апреля 2009, 11:33

Kitaro / Ki [20 bit remastered]

Дисковод: TSSTcorpCD/DVDW SH-S183A Adapter: 4 ID: 1

Режим чтения : Достоверность
Использование точного потока : Да
Отключение кэша аудио : Да
Использование указателей C2 : Нет

Коррекция смещения при чтении : 6
Способность читать области Lead-in и Lead-out : Нет
Заполнение пропущенных сэмплов тишиной : Да
Удаление блоков с тишиной в начале и конце : Нет
При вычислениях CRC использовались нулевые сэмплы : Да
Интерфейс : Установленный внешний ASPI-интерфейс

Выходной формат : Внутренние WAV-операции
Формат сэмплов : 44.100 Гц; 16 бит; стерео
Смещение при сжатии : 0

TOC извлечённого CD

Трек | Старт | Длительность | Начальный сектор | Конечный сектор
––––––––––––––––––––––––––––––––––-
1 | 0:00.00 | 6:58.50 | 0 | 31399
2 | 6:58.50 | 4:12.40 | 31400 | 50339
3 | 11:11.15 | 6:21.45 | 50340 | 78959
4 | 17:32.60 | 5:27.50 | 78960 | 103534
5 | 23:00.35 | 5:00.27 | 103535 | 126061
6 | 28:00.62 | 3:44.50 | 126062 | 142911
7 | 31:45.37 | 3:49.73 | 142912 | 160159
8 | 35:35.35 | 8:34.60 | 160160 | 198769

Характеристики диапазона извлечения и сообщения об ошибках

Выбранный диапазон

Имя файла D:TEMPKitaro – Ki [20 bit remastered].wav

Пиковый уровень 100.0 %
Качество диапазона 100.0 %
CRC теста 1BDC9458
CRC копии 1BDC9458
Копирование… OK

Ошибок не произошло

AccurateRip: сводка

Трек 1 точное извлечение (доверие 1) [E0B3827E]
Трек 2 точное извлечение (доверие 1) [03F5F1BB]
Трек 3 точное извлечение (доверие 1) [984DB026]
Трек 4 точное извлечение (доверие 1) [0FF56FB9]
Трек 5 точное извлечение (доверие 1) [8B29A990]
Трек 6 точное извлечение (доверие 1) [46A0C8CB]
Трек 7 точное извлечение (доверие 1) [956817FB]
Трек 8 точное извлечение (доверие 1) [F35ED7EB]

Все треки извлечены точно

Конец отчёта

AR log
[CUETools log; Date: 12.07.2017 2:49:47; Version: 2.1.4]
[CTDB TOCID: RcgMmM51su9zOuX0To8vOTafdcY-] found.
Track | CTDB Status
1 | (10/11) Accurately ripped
2 | (10/11) Accurately ripped
3 | (10/11) Accurately ripped
4 | (10/11) Accurately ripped
5 | (10/11) Accurately ripped
6 | (10/11) Accurately ripped
7 | (10/11) Accurately ripped
8 | (10/11) Accurately ripped
[AccurateRip ID: 000d9ceb-0059a27e-5f0a5a08] found.
Track [ CRC | V2 ] Status
01 [e0b3827e|ec232637] (2+2/6) Accurately ripped
02 [03f5f1bb|d899c062] (2+2/6) Accurately ripped
03 [984db026|6c52412b] (2+2/6) Accurately ripped
04 [0ff56fb9|1ccda7ae] (2+2/6) Accurately ripped
05 [8b29a990|faea23c8] (2+2/6) Accurately ripped
06 [46a0c8cb|5dd25947] (2+2/6) Accurately ripped
07 [956817fb|f1ed112e] (2+2/6) Accurately ripped
08 [f35ed7eb|dbc2b3db] (2+2/6) Accurately ripped
Offsetted by -1659:
01 [b412f71c] (0/6) No match (V2 was not tested)
02 [e370620b] (0/6) No match (V2 was not tested)
03 [cc9bbf71] (0/6) No match (V2 was not tested)
04 [30dadbc1] (0/6) No match (V2 was not tested)
05 [f751e898] (0/6) No match (V2 was not tested)
06 [7f574dba] (0/6) No match (V2 was not tested)
07 [692a6245] (0/6) No match (V2 was not tested)
08 [72f57d71] (0/6) No match (V2 was not tested)
Offsetted by -1000:
01 [bed0bf5a] (0/6) No match (V2 was not tested)
02 [2abfd296] (0/6) No match (V2 was not tested)
03 [ccbbce0e] (0/6) No match (V2 was not tested)
04 [f3454b39] (0/6) No match (V2 was not tested)
05 [e8373d0c] (0/6) No match (V2 was not tested)
06 [799beb7a] (0/6) No match (V2 was not tested)
07 [ab73ac22] (0/6) No match (V2 was not tested)
08 [aefaef48] (0/6) No match (V2 was not tested)

Track Peak [ CRC32 ] [W/O NULL] [ LOG ]
– 100,0 [1BDC9458] [ED0D92D1] CRC32
01 100,0 [2C7637A4] [BF8AC5E7]
02 96,9 [F97454B5] [B294BBDC]
03 100,0 [08214E06] [9DE7FBAE]
04 84,0 [A321C566] [3598042A]
05 98,2 [54CF177B] [BEC31785]
06 85,2 [A7645909] [446D781C]
07 98,9 [1CE3C9B1] [77CA652C]
08 100,0 [F2C1CEA7] [1E23108E]

DR log
foobar2000 1.2 / Dynamic Range Meter 1.1.1
log date: 2017-07-12 02:51:06

––––––––––––––––––––––––––––––––––––––––
Analyzed: Kitaro / Ki [20 bit remastered]
––––––––––––––––––––––––––––––––––––––––

DR Peak RMS Duration Track
––––––––––––––––––––––––––––––––––––––––
DR9 0.00 dB -13.55 dB 6:59 01-Revelation
DR9 -0.27 dB -12.39 dB 4:13 02-Stream Of Being
DR9 0.00 dB -11.70 dB 6:22 03-Kaleidoscope
DR9 -1.51 dB -13.39 dB 5:28 04-Oasis
DR10 -0.15 dB -15.19 dB 5:00 05-Sun
DR10 -1.39 dB -14.71 dB 3:45 06-Endless Water
DR11 -0.09 dB -15.43 dB 3:50 07-Tree
DR10 0.00 dB -13.34 dB 8:35 08-Cloud In The Sky
––––––––––––––––––––––––––––––––––––––––

Number of tracks: 8
Official DR value: DR10

Samplerate: 44100 Hz
Channels: 2
Bits per sample: 16
Bitrate: 803 kbps
Codec: FLAC
================================================================================

Kitaro - Ki (1980) Remastered 1996

Kitaro - Ki (1980) Remastered 1996

All thanks to original releaser – spAceLover

More interesting music in My Blog

Kitaro – Albums Collection 1979-1993 [Geffen Records Releases] (13CD)

Kitaro – Ki (1980) Remastered 1996 Download, Warez, DDL, Free, Full Album, Torrent, Legal.

Download