Kiss, Paul Stanley – Paul Stanley (1978)

Download
Kiss, Paul Stanley - Paul Stanley (1978)

Kiss – Paul Stanley (1978)
EAC | Flac(Image) + Cue + Log > 238 Mb | Mp3 CBR 320Kpbs > 84 Mb
Hard Rock | TT – 35:17 | Label: PolyGram | Cat. # 826 915-2 | 1987, DE
Scans (png) > 39 Mb | NitroFlare, FileFactory

Paul Stanley’s 1978 solo album was the most Kiss-like of the four, sounding more like an official band release rather than a solo outing. But this isn’t necessarily a bad thing – Stanley had become a seasoned hard rock songwriter by this point, churning out some of Kiss’ best material ("Love Gun," "Detroit Rock City," "I Want You," etc.), and wisely stuck to his winning formula on Paul Stanley. With the help of studio musicians, as well as guitarist Bob Kulick (who was almost an original member of Kiss, and brother of future Kiss replacement guitarist Bruce) and Rod Stewart/Vanilla Fudge drummer Carmine Appice, Stanley’s album is on par with Ace Frehley’s as far as consistency is concerned. A couple of epic compositions (by Kiss standards) are highlights – "Tonight You Belong to Me" and "Take Me Away (Together as One)" – as are the more straightforward tracks "Ain’t Quite Right," "Wouldn’t You Like to Know Me?," "It’s Alright," and "Goodbye." While his other Kiss bandmates took more chances with their solo records (with varying results), Stanley’s album is more or less what a new Kiss album released in 1978 would have sounded like.

by Greg Prato, allmusic.com
Kiss, Paul Stanley - Paul Stanley (1978)

Kiss at wiki | Kiss at discogs | Kiss official website

*********
Kiss, Paul Stanley – Paul Stanley at discogs

Kiss, Paul Stanley - Paul Stanley (1978)

Tracklist:

01. Tonight You Belong To Me [04:40]
02. Move On [03:09]
03. Ain’t Quite Right [03:36]
04. Wouldn’t You Like To Know Me [03:18]
05. Take Me Away (Together As One) [05:35]
06. It’s Alright [03:34]
07. Hold Me, Touch Me (Think Of Me When We’re Apart) [03:40]
08. Love In Chains [03:33]
09. Goodbye [04:10]

EAC
Exact Audio Copy V0.99 prebeta 5 from 4. May 2009

EAC extraction logfile from 9. September 2012, 9:52

KISS / Paul Stanley

Used drive : ASUS DRW-24B3ST Adapter: 3 ID: 0

Read mode : Secure
Utilize accurate stream : Yes
Defeat audio cache : Yes
Make use of C2 pointers : No

Read offset correction : 6
Overread into Lead-In and Lead-Out : No
Fill up missing offset samples with silence : Yes
Delete leading and trailing silent blocks : No
Null samples used in CRC calculations : Yes
Used interface : Native Win32 interface for Win NT & 2000

Used output format : User Defined Encoder
Selected bitrate : 1024 kBit/s
Quality : High
Add ID3 tag : No
Command line compressor : C:Program Files (x86)EACWVwavpack.exe
Additional command line options : -h -hh -m %s %d

TOC of the extracted CD

Track | Start | Length | Start sector | End sector
––––––––––––––––––––––––––––-
1 | 0:00.33 | 4:40.17 | 33 | 21049
2 | 4:40.50 | 3:11.40 | 21050 | 35414
3 | 7:52.15 | 3:38.18 | 35415 | 51782
4 | 11:30.33 | 3:20.65 | 51783 | 66847
5 | 14:51.23 | 5:37.30 | 66848 | 92152
6 | 20:28.53 | 3:37.42 | 92153 | 108469
7 | 24:06.20 | 3:43.33 | 108470 | 125227
8 | 27:49.53 | 3:33.37 | 125228 | 141239
9 | 31:23.15 | 4:10.25 | 141240 | 160014

Range status and errors

Selected range

Filename G:KISS1978- Paul Stanley (DE 1987 PolyGram Records • 826 915-2)KISS – Paul Stanley.wav

Peak level 100.0 %
Range quality 99.9 %
Test CRC 21518F68
Copy CRC 21518F68
Copy OK

No errors occurred

AccurateRip summary

Track 1 accurately ripped (confidence 3) [7BB6E610]
Track 2 accurately ripped (confidence 3) [439E2C00]
Track 3 accurately ripped (confidence 3) [D6E3A423]
Track 4 accurately ripped (confidence 3) [63C01A20]
Track 5 accurately ripped (confidence 3) [4F03C225]
Track 6 accurately ripped (confidence 3) [47BC098D]
Track 7 accurately ripped (confidence 3) [2541F939]
Track 8 accurately ripped (confidence 3) [9523BBEA]
Track 9 accurately ripped (confidence 3) [1A675358]

All tracks accurately ripped

End of status report

Dynamic Range
foobar2000 1.2.9 / Dynamic Range Meter 1.1.1
log date: 2016-12-24 20:18:24

––––––––––––––––––––––––––––––––––––––––
Analyzed: KISS / Paul Stanley
––––––––––––––––––––––––––––––––––––––––

DR Peak RMS Duration Track
––––––––––––––––––––––––––––––––––––––––
DR12 0.00 dB -14.47 dB 4:40 01-Tonight You Belong To Me
DR11 0.00 dB -13.52 dB 3:12 02-Move On
DR13 -0.40 dB -16.52 dB 3:38 03-Ain’t Quite Right
DR12 0.00 dB -13.77 dB 3:21 04-Wouldn’t You Like To Know Me
DR12 0.00 dB -15.82 dB 5:37 05-Take Me Away (Together As One)
DR12 0.00 dB -13.06 dB 3:38 06-It’s Alright
DR11 -0.30 dB -14.61 dB 3:43 07-Hold Me, Touch Me (Think Of Me When We’re Apart)
DR12 -0.01 dB -13.62 dB 3:33 08-Love In Chains
DR12 0.00 dB -14.43 dB 4:10 09-Goodbye
––––––––––––––––––––––––––––––––––––––––

Number of tracks: 9
Official DR value: DR12

Samplerate: 44100 Hz
Channels: 2
Bits per sample: 16
Bitrate: 908 kbps
Codec: FLAC

CUETools
[CUETools log; Date: 24.12.2016 20:18:15; Version: 2.1.4]
Pregap length 00:00:33.
[CTDB TOCID: .tmfxolv.IC9ol.Me1usFlhbY9o-] found.
Track | CTDB Status
1 | (8/8) Accurately ripped
2 | (8/8) Accurately ripped
3 | (8/8) Accurately ripped
4 | (8/8) Accurately ripped
5 | (8/8) Accurately ripped
6 | (8/8) Accurately ripped
7 | (8/8) Accurately ripped
8 | (8/8) Accurately ripped
9 | (8/8) Accurately ripped
[AccurateRip ID: 000c3dbb-0059a594-7e085509] found.
Track [ CRC | V2 ] Status
01 [7bb6e610|74ee135f] (05+09/14) Accurately ripped
02 [439e2c00|30a2d5d0] (05+09/14) Accurately ripped
03 [d6e3a423|24355b84] (05+09/14) Accurately ripped
04 [63c01a20|80c3c528] (05+09/14) Accurately ripped
05 [4f03c225|7da22cde] (05+09/14) Accurately ripped
06 [47bc098d|78d1dbb0] (05+09/14) Accurately ripped
07 [2541f939|b27d2697] (05+08/13) Accurately ripped
08 [9523bbea|4a564042] (05+09/14) Accurately ripped
09 [1a675358|ea1c44b2] (05+09/14) Accurately ripped

Track Peak [ CRC32 ] [W/O NULL] [ LOG ]
– 100,0 [21518F68] [36E0614B] CRC32
01 100,0 [A01607A2] [0880C9EC]
02 100,0 [A1B5820D] [6920E910]
03 95,5 [2633F81F] [B35AAFAE]
04 100,0 [91C4C2B4] [E98FD37D]
05 100,0 [CD227621] [03495258]
06 100,0 [8B01ED55] [B15E339C]
07 96,6 [0F32654C] [73E620E4]
08 99,9 [E9BAA5DE] [E6C73917]
09 99,9 [6B987EC2] [81899FA5]

Kiss, Paul Stanley - Paul Stanley (1978)

All thanks go to original releaser …

Kiss, Paul Stanley – Paul Stanley (1978) Download, Warez, DDL, Free, Full Album, Torrent, Legal.

Download