Kiss – Love Gun (1977)

Download
Kiss - Love Gun (1977)

Kiss – Love Gun (1977)
EAC | Flac(Image) + Cue + Log > 216 Mb | Mp3 CBR 320Kpbs > 76 Mb
Hard Rock | TT – 32:08 | Label: Casablanca Records | Cat. # 824 151-2 M-1 | 1987, DE
Scans (png) > 32 Mb | NitroFlare, FileFactory

Love Gun was Kiss’ fifth studio album in three years (and seventh release overall, peaking at number four on Billboard), and proved to be the last release that the original lineup played on. By 1977, Kiss merchandise was flooding the marketplace (lunch boxes, makeup kits, comic books, etc.), and it would ultimately lead to a Kiss backlash in the ’80s. But the band was still focused on their music for Love Gun, similar in sound and approach to Rock and Roll Over, their previous straight-ahead rock release. It included Ace Frehley’s lead vocals on "Shock Me," as well as one of Kiss’ best and most renowned hard rockers in the thunderous title track. The album’s opener, "I Stole Your Love," also served as the opening number on Kiss’ ensuing tour, while "Christine Sixteen" is one of the few Kiss tracks to contain piano prominently. "Almost Human" is an underrated rocker and features a great Jimi Hendrix-esque guitar solo from Frehley (no doubt due to ex-Hendrix producer Eddie Kramer manning the boards again), while "Plaster Caster" is a tribute to the famous groupies of the same name. The only weak spots on an otherwise stellar album are an obvious "Rock and Roll All Nite" ripoff titled "Tomorrow and Tonight," and a pointless remake of the Phil Spector-penned classic "Then He Kissed Me" (reworked as "Then She Kissed Me").

by Greg Prato, allmusic.com
Kiss - Love Gun (1977)

Kiss at wiki | Kiss at discogs | Kiss official website

*********
Kiss – Love Gun at discogs

Kiss - Love Gun (1977)

Tracklist:

01. I Stole Your Love [02:59]
02. Christine Sixteen [03:06]
03. Got Love For Sale [03:25]
04. Shock Me [03:44]
05. Tomorrow And Tonight [03:34]
06. Love Gun [03:11]
07. Hooligan [02:58]
08. Almost Human [02:46]
09. Plaster Caster [03:25]
10. Then She Kissed Me [02:55]

EAC
Exact Audio Copy V0.99 prebeta 5 from 4. May 2009

EAC extraction logfile from 9. September 2012, 8:07

KISS / Love Gun

Used drive : ASUS DRW-24B3ST Adapter: 3 ID: 0

Read mode : Secure
Utilize accurate stream : Yes
Defeat audio cache : Yes
Make use of C2 pointers : No

Read offset correction : 6
Overread into Lead-In and Lead-Out : No
Fill up missing offset samples with silence : Yes
Delete leading and trailing silent blocks : No
Null samples used in CRC calculations : Yes
Used interface : Native Win32 interface for Win NT & 2000

Used output format : User Defined Encoder
Selected bitrate : 1024 kBit/s
Quality : High
Add ID3 tag : No
Command line compressor : C:Program Files (x86)EACWVwavpack.exe
Additional command line options : -h -hh -m %s %d

TOC of the extracted CD

Track | Start | Length | Start sector | End sector
––––––––––––––––––––––––––––-
1 | 0:00.33 | 2:59.05 | 33 | 13462
2 | 2:59.38 | 3:06.55 | 13463 | 27467
3 | 6:06.18 | 3:25.42 | 27468 | 42884
4 | 9:31.60 | 3:45.45 | 42885 | 59804
5 | 13:17.30 | 3:35.30 | 59805 | 75959
6 | 16:52.60 | 3:11.63 | 75960 | 90347
7 | 20:04.48 | 2:58.60 | 90348 | 103757
8 | 23:03.33 | 2:46.27 | 103758 | 116234
9 | 25:49.60 | 3:25.50 | 116235 | 131659
10 | 29:15.35 | 2:55.70 | 131660 | 144854

Range status and errors

Selected range

Filename G:KISS1977- Love Gun (US 1987 Casablanca Records • 824 151-2 M-1)KISS – Love Gun.wav

Peak level 91.2 %
Range quality 100.0 %
Test CRC CCE91CC8
Copy CRC CCE91CC8
Copy OK

No errors occurred

AccurateRip summary

Track 1 accurately ripped (confidence 26) [8BC05A7E]
Track 2 accurately ripped (confidence 25) [32440F2E]
Track 3 accurately ripped (confidence 25) [C950CA1E]
Track 4 accurately ripped (confidence 25) [0CA8184F]
Track 5 accurately ripped (confidence 24) [D0ABF3A1]
Track 6 accurately ripped (confidence 27) [639E6C6F]
Track 7 accurately ripped (confidence 24) [82F527A3]
Track 8 accurately ripped (confidence 24) [E592E3EC]
Track 9 accurately ripped (confidence 25) [24DC323E]
Track 10 accurately ripped (confidence 24) [0839C78B]

All tracks accurately ripped

End of status report

Dynamic Range
foobar2000 1.2.9 / Dynamic Range Meter 1.1.1
log date: 2016-12-20 01:03:03

––––––––––––––––––––––––––––––––––––––––
Analyzed: KISS / Love Gun
––––––––––––––––––––––––––––––––––––––––

DR Peak RMS Duration Track
––––––––––––––––––––––––––––––––––––––––
DR11 -1.30 dB -13.35 dB 2:59 01-I Stole Your Love
DR12 -1.70 dB -14.87 dB 3:07 02-Christine Sixteen
DR11 -1.25 dB -13.80 dB 3:26 03-Got Love For Sale
DR12 -1.38 dB -14.94 dB 3:46 04-Shock Me
DR11 -1.19 dB -14.00 dB 3:35 05-Tomorrow And Tonight
DR10 -0.83 dB -13.33 dB 3:12 06-Love Gun
DR12 -0.82 dB -14.17 dB 2:59 07-Hooligan
DR11 -0.91 dB -13.74 dB 2:46 08-Almost Human
DR11 -1.13 dB -14.14 dB 3:26 09-Plaster Caster
DR11 -0.79 dB -14.38 dB 2:56 10-Then She Kissed Me
––––––––––––––––––––––––––––––––––––––––

Number of tracks: 10
Official DR value: DR11

Samplerate: 44100 Hz
Channels: 2
Bits per sample: 16
Bitrate: 912 kbps
Codec: FLAC

CUETools
[CUETools log; Date: 20.12.2016 1:02:54; Version: 2.1.4]
Pregap length 00:00:33.
[CTDB TOCID: tsTlT3yixfM3iCUc6mYzptd3YEo-] found.
Track | CTDB Status
1 | (47/51) Accurately ripped
2 | (47/51) Accurately ripped
3 | (47/51) Accurately ripped
4 | (47/51) Accurately ripped
5 | (47/51) Accurately ripped
6 | (47/51) Accurately ripped
7 | (47/51) Accurately ripped
8 | (47/51) Accurately ripped
9 | (47/51) Accurately ripped
10 | (47/51) Accurately ripped
[AccurateRip ID: 000c4e46-00627c24-85078b0a] found.
Track [ CRC | V2 ] Status
01 [8bc05a7e|88e5016a] (028+030/110) Accurately ripped
02 [32440f2e|02109269] (027+029/107) Accurately ripped
03 [c950ca1e|3891038f] (027+029/108) Accurately ripped
04 [0ca8184f|837be3c8] (027+030/109) Accurately ripped
05 [d0abf3a1|3258930c] (026+029/108) Accurately ripped
06 [639e6c6f|e69590b4] (029+029/110) Accurately ripped
07 [82f527a3|3f02ec46] (026+029/108) Accurately ripped
08 [e592e3ec|6e52a83d] (026+029/105) Accurately ripped
09 [24dc323e|8ddee09b] (027+028/108) Accurately ripped
10 [0839c78b|e7b32c4f] (026+030/108) Accurately ripped
Offsetted by 443:
01 [e5cd5655] (012/110) Accurately ripped
02 [d05e68b5] (011/107) Accurately ripped
03 [2c23abb8] (012/108) Accurately ripped
04 [ea8cd928] (011/109) Accurately ripped
05 [4ddf44a8] (012/108) Accurately ripped
06 [1b1ec1ed] (011/110) Accurately ripped
07 [746f5c5c] (012/108) Accurately ripped
08 [3e9cf442] (011/105) Accurately ripped
09 [8e8e4112] (012/108) Accurately ripped
10 [24c39da7] (012/108) Accurately ripped
Offsetted by 1743:
01 [24401fd7] (012/110) Accurately ripped
02 [ee116fde] (012/107) Accurately ripped
03 [2e48135a] (012/108) Accurately ripped
04 [8d1db00f] (013/109) Accurately ripped
05 [24b7bc8c] (013/108) Accurately ripped
06 [ef871ecc] (013/110) Accurately ripped
07 [ba9218b1] (013/108) Accurately ripped
08 [53b10358] (011/105) Accurately ripped
09 [bbf14e3e] (013/108) Accurately ripped
10 [14730715] (012/108) Accurately ripped

Track Peak [ CRC32 ] [W/O NULL] [ LOG ]
– 91,2 [CCE91CC8] [A20B475A] CRC32
01 86,1 [56272448] [2C0C7A5C]
02 82,1 [F8976FC7] [8E3E4997]
03 86,5 [9C14C2FB] [AE11ED06]
04 85,3 [E82DA4FD] [C29DC50D]
05 87,1 [C5962D13] [0845F146]
06 90,8 [81019885] [04B14E0C]
07 91,0 [8EFAB6D1] [9EF7239D]
08 90,0 [685700C2] [0C2DCDE0]
09 87,8 [5CC09C67] [3AB5BF76]
10 91,2 [7260A69C] [269E6C72]

Kiss - Love Gun (1977)

All thanks go to original releaser …

Kiss – Love Gun (1977) Download, Warez, DDL, Free, Full Album, Torrent, Legal.

Download