Kiss, Gene Simmons – Gene Simmons (1978)

Download
Kiss, Gene Simmons - Gene Simmons (1978)

Kiss, Gene Simmons – Gene Simmons (1978)
EAC | Flac(Image) + Cue + Log > 258 Mb | Mp3 CBR 320Kpbs > 92 Mb
Hard Rock | TT – 39:02 | Label: PolyGram | Cat. # 826 239-2 | 1987, DE
Scans (png) > 48 Mb | NitroFlare, FileFactory

Most Kiss fans associate Gene Simmons with the band’s hardest-rocking compositions; after all, he’s responsible for such heavies as "Watchin’ You," "Calling Dr. Love," "Larger Than Life," and "Goin’ Blind." So many Kiss fans must have been surprised when they heard Gene’s diverse 1978 solo album, with songs that contained choirs and string arrangements, plus elements of Beatles pop, ’70s funk/disco, and feel-good rock & roll. Granted, there are a few heavy rockers (such as the single "Radioactive," "Burning Up With Fever," and "See You in Your Dreams"), but Simmons was always a closet Beatles fan, as evidenced by "See You Tonite," "Always Near You," "Man of 1,000 Faces," and "Mr. Make Believe." The only real misstep is a preposterously embarrassing cover of the Disney classic "When You Wish Upon a Star" (complete with Disney-esque sound effects/music). But Simmons made sure that the top artists of the day lent a hand (Aerosmith’s Joe Perry, Cheap Trick’s Rick Nielsen, Donna Summer, Cher, Bob Seger, Jeff "Skunk" Baxter, Helen Reddy, and Janis Ian), which makes Gene’s solo album an unpredictable yet ultimately enjoyable release.

by Greg Prato, allmusic.com
Kiss, Gene Simmons - Gene Simmons (1978)

Kiss at wiki | Kiss at discogs | Kiss official website

*********
Kiss, Gene Simmons – Gene Simmons at discogs

Kiss, Gene Simmons - Gene Simmons (1978)

Tracklist:

01. Radioactive [03:51]
02. Burning Up With Fever [04:22]
03. See You Tonite [02:28]
04. Tunnel Of Love [03:52]
05. True Confessions [03:30]
06. Living In Sin [03:51]
07. Always Near You / Nowhere To Hide [04:12]
08. Man Of 1000 Faces [03:17]
09. Mr. Make Believe [04:02]
10. See You In Your Dreams [02:49]
11. When You Wish Upon A Star [02:43]

EAC
Exact Audio Copy V0.99 prebeta 5 from 4. May 2009

EAC extraction logfile from 9. September 2012, 9:52

KISS / Gene Simmons

Used drive : ASUS DRW-24B3ST Adapter: 2 ID: 0

Read mode : Secure
Utilize accurate stream : Yes
Defeat audio cache : Yes
Make use of C2 pointers : No

Read offset correction : 6
Overread into Lead-In and Lead-Out : No
Fill up missing offset samples with silence : Yes
Delete leading and trailing silent blocks : No
Null samples used in CRC calculations : Yes
Used interface : Native Win32 interface for Win NT & 2000

Used output format : User Defined Encoder
Selected bitrate : 1024 kBit/s
Quality : High
Add ID3 tag : No
Command line compressor : C:Program Files (x86)EACWVwavpack.exe
Additional command line options : -h -hh -m %s %d

TOC of the extracted CD

Track | Start | Length | Start sector | End sector
––––––––––––––––––––––––––––-
1 | 0:00.33 | 3:51.15 | 33 | 17372
2 | 3:51.48 | 4:22.27 | 17373 | 37049
3 | 8:14.00 | 2:28.35 | 37050 | 48184
4 | 10:42.35 | 3:52.58 | 48185 | 65642
5 | 14:35.18 | 3:30.52 | 65643 | 81444
6 | 18:05.70 | 3:51.45 | 81445 | 98814
7 | 21:57.40 | 4:12.55 | 98815 | 117769
8 | 26:10.20 | 3:17.48 | 117770 | 132592
9 | 29:27.68 | 4:02.15 | 132593 | 150757
10 | 33:30.08 | 2:49.20 | 150758 | 163452
11 | 36:19.28 | 2:43.42 | 163453 | 175719

Range status and errors

Selected range

Filename G:KISS1978- Gene Simmons (DE 1987 PolyGram Records • 826 239-2)KISS – Gene Simmons.wav

Peak level 100.0 %
Range quality 100.0 %
Test CRC 1B4A9887
Copy CRC 1B4A9887
Copy OK

No errors occurred

AccurateRip summary

Track 1 accurately ripped (confidence 2) [36C2FA55]
Track 2 accurately ripped (confidence 2) [34B9D072]
Track 3 accurately ripped (confidence 2) [ADC8976E]
Track 4 accurately ripped (confidence 3) [98CC4489]
Track 5 accurately ripped (confidence 3) [6E55BC28]
Track 6 accurately ripped (confidence 3) [516926A7]
Track 7 accurately ripped (confidence 3) [399598A0]
Track 8 accurately ripped (confidence 3) [69251623]
Track 9 accurately ripped (confidence 3) [851D4502]
Track 10 accurately ripped (confidence 3) [355E775A]
Track 11 accurately ripped (confidence 3) [E522E87F]

All tracks accurately ripped

End of status report

Dynamic Range
foobar2000 1.2.9 / Dynamic Range Meter 1.1.1
log date: 2016-12-20 15:37:02

––––––––––––––––––––––––––––––––––––––––
Analyzed: KISS / Gene Simmons
––––––––––––––––––––––––––––––––––––––––

DR Peak RMS Duration Track
––––––––––––––––––––––––––––––––––––––––
DR12 -0.35 dB -15.39 dB 3:51 01-Radioactive
DR12 -0.01 dB -14.78 dB 4:22 02-Burning Up With Fever
DR13 -1.34 dB -16.91 dB 2:28 03-See You Tonite
DR13 -0.19 dB -15.18 dB 3:53 04-Tunnel Of Love
DR13 0.00 dB -15.21 dB 3:31 05-True Confessions
DR12 0.00 dB -14.99 dB 3:52 06-Living In Sin
DR11 -0.40 dB -16.31 dB 4:13 07-Always Near You / Nowhere To Hide
DR12 0.00 dB -15.22 dB 3:18 08-Man Of 1000 Faces
DR13 -0.03 dB -16.72 dB 4:02 09-Mr. Make Believe
DR12 0.00 dB -13.84 dB 2:49 10-See You In Your Dreams
DR11 -2.87 dB -18.42 dB 2:44 11-When You Wish Upon A Star
––––––––––––––––––––––––––––––––––––––––

Number of tracks: 11
Official DR value: DR12

Samplerate: 44100 Hz
Channels: 2
Bits per sample: 16
Bitrate: 898 kbps
Codec: FLAC

CUETools
[CUETools log; Date: 20.12.2016 15:37:27; Version: 2.1.4]
Pregap length 00:00:33.
[CTDB TOCID: bSQYVUnzhohNtZMtdJMYtYf3xWU-] found.
Track | CTDB Status
1 | (4/4) Accurately ripped
2 | (4/4) Accurately ripped
3 | (4/4) Accurately ripped
4 | (4/4) Accurately ripped
5 | (4/4) Accurately ripped
6 | (4/4) Accurately ripped
7 | (4/4) Accurately ripped
8 | (4/4) Accurately ripped
9 | (4/4) Accurately ripped
10 | (4/4) Accurately ripped
11 | (4/4) Accurately ripped
[AccurateRip ID: 00109d46-008f62df-9609260b] found.
Track [ CRC | V2 ] Status
01 [36c2fa55|0fc89718] (03+08/11) Accurately ripped
02 [34b9d072|0e58bd5c] (03+08/11) Accurately ripped
03 [adc8976e|714a1358] (03+08/11) Accurately ripped
04 [98cc4489|197c43ab] (04+08/12) Accurately ripped
05 [6e55bc28|f00e61f6] (04+08/12) Accurately ripped
06 [516926a7|81eeab89] (04+08/12) Accurately ripped
07 [399598a0|6a7cd72a] (04+08/12) Accurately ripped
08 [69251623|51fd6029] (04+08/12) Accurately ripped
09 [851d4502|4157b048] (04+08/12) Accurately ripped
10 [355e775a|1fb1637f] (04+09/13) Accurately ripped
11 [e522e87f|46e9997c] (04+09/13) Accurately ripped

Track Peak [ CRC32 ] [W/O NULL] [ LOG ]
– 100,0 [1B4A9887] [40DF2509] CRC32
01 96,0 [AE39673B] [4150FC81]
02 99,9 [5F91B6EB] [4EFA73E8]
03 85,7 [B0274B09] [722C9E76]
04 97,8 [3E1F8D8D] [A470EC23]
05 100,0 [FF99B057] [BC22925A]
06 100,0 [F82B3048] [C2DCEAD1]
07 95,5 [D806FFB5] [B9976922]
08 100,0 [3C20ECB6] [104C2B8B]
09 99,6 [963573B3] [DC4BBF6C]
10 100,0 [AB2CDAF5] [8B236AE7]
11 71,8 [30A73071] [88A21014]

Kiss, Gene Simmons - Gene Simmons (1978)

All thanks go to original releaser …

Kiss, Gene Simmons – Gene Simmons (1978) Download, Warez, DDL, Free, Full Album, Torrent, Legal.

Tags:

  • kiss gene simmons torrent
Download