Kiss – Dynasty (1979) | ViralVideoPk

Daily Dose of Free Downloads

Kiss – Dynasty (1979)

Download

Kiss - Dynasty (1979)

Kiss – Dynasty (1979)
EAC | Flac(Image) + Cue + Log > 269 Mb | Mp3 CBR 320Kpbs > 91 Mb
Hard Rock | TT – 38:34 | Label: PolyGram | Cat. # 812 770-2 M-1 | 1987, DE
Scans (png) > 45 Mb | NitroFlare, FileFactory

Dynasty marked the first time that the original four members of Kiss didn’t all appear together for the entire album – session drummer Anton Fig subbed for Peter Criss due to the latter’s erratic behavior and injuries sustained in a serious car crash. And even though it was a platinum-plus smash, Dynasty marked the beginning of Kiss’ unfocused period, which would ultimately end in a nosedive of the band’s popularity, as well as Criss and Ace Frehley leaving the band by 1982. In latter-day interviews, the band admitted that they started to listen to outsiders about what direction the music should go around the time of Dynasty. And since small children were a large part of Kiss’ audience by 1979 (due to merchandising and the God-awful TV movie Kiss Meets the Phantom), the band began backing away from heavy metal and embracing pop. Included is their hit disco experiment, "I Was Made for Loving You" (which was no better or worse than any other rock-meets-disco experiment of the late ’70s), as well as "Sure Know Something," a melodic pop/rocker that should have also been a smash. Many other tracks would have been better if they weren’t so glossed up (due to producer Vini Poncia), such as "Charisma," "Magic Touch," "Hard Times," and a great reworked cover of the Rolling Stones obscurity "2,000 Man." Not a horrible album (that distinction would go to 1981’s Music from "The Elder"), but certainly not on par with such classics as Hotter Than Hell, Destroyer, or Love Gun.

by Greg Prato, allmusic.com
Kiss - Dynasty (1979)

Kiss at wiki | Kiss at discogs | Kiss official website

*********
Kiss – Dynasty at discogs

Kiss - Dynasty (1979)

Tracklist:

01. I Was Made For Lovin’ You [04:29]
02. 2,000 Man [04:53]
03. Sure Know Something [03:58]
04. Dirty Livin’ [04:16]
05. Charisma [04:24]
06. Magic Touch [04:38]
07. Hard Times [03:30]
08. X-Ray Eyes [03:44]
09. Save Your Love [04:37]

EAC
Exact Audio Copy V0.99 prebeta 5 from 4. May 2009

EAC extraction logfile from 9. September 2012, 10:22

KISS / Dynasty

Used drive : ASUS DRW-24B3ST Adapter: 3 ID: 0

Read mode : Secure
Utilize accurate stream : Yes
Defeat audio cache : Yes
Make use of C2 pointers : No

Read offset correction : 6
Overread into Lead-In and Lead-Out : No
Fill up missing offset samples with silence : Yes
Delete leading and trailing silent blocks : No
Null samples used in CRC calculations : Yes
Used interface : Native Win32 interface for Win NT & 2000

Used output format : User Defined Encoder
Selected bitrate : 1024 kBit/s
Quality : High
Add ID3 tag : No
Command line compressor : C:Program Files (x86)EACWVwavpack.exe
Additional command line options : -h -hh -m %s %d

TOC of the extracted CD

Track | Start | Length | Start sector | End sector
––––––––––––––––––––––––––––-
1 | 0:00.33 | 4:29.57 | 33 | 20264
2 | 4:30.15 | 4:53.55 | 20265 | 42294
3 | 9:23.70 | 3:58.25 | 42295 | 60169
4 | 13:22.20 | 4:16.50 | 60170 | 79419
5 | 17:38.70 | 4:24.30 | 79420 | 99249
6 | 22:03.25 | 4:38.68 | 99250 | 120167
7 | 26:42.18 | 3:31.42 | 120168 | 136034
8 | 30:13.60 | 3:44.05 | 136035 | 152839
9 | 33:57.65 | 4:37.63 | 152840 | 173677

Range status and errors

Selected range

Filename G:KISS1979- Dynasty (DE 1987 PolyGram Records • 812 770-2 M-1)KISS – Dynasty.wav

Peak level 100.0 %
Range quality 100.0 %
Test CRC 404A68CD
Copy CRC 404A68CD
Copy OK

No errors occurred

AccurateRip summary

Track 1 accurately ripped (confidence 38) [41FBB2E4]
Track 2 accurately ripped (confidence 37) [D05F7736]
Track 3 accurately ripped (confidence 38) [2F18224C]
Track 4 accurately ripped (confidence 38) [646D0F7A]
Track 5 accurately ripped (confidence 37) [82AF1C96]
Track 6 accurately ripped (confidence 39) [806ADF69]
Track 7 accurately ripped (confidence 39) [05552D70]
Track 8 accurately ripped (confidence 38) [D7AF66CB]
Track 9 accurately ripped (confidence 38) [94C34BF2]

All tracks accurately ripped

End of status report

Dynamic Range
foobar2000 1.2.9 / Dynamic Range Meter 1.1.1
log date: 2016-12-24 20:23:43

––––––––––––––––––––––––––––––––––––––––
Analyzed: KISS / Dynasty
––––––––––––––––––––––––––––––––––––––––

DR Peak RMS Duration Track
––––––––––––––––––––––––––––––––––––––––
DR12 0.00 dB -13.77 dB 4:30 01-I Was Made For Lovin’ You
DR12 0.00 dB -13.60 dB 4:54 02-2,000 Man
DR12 0.00 dB -14.39 dB 3:58 03-Sure Know Something
DR12 0.00 dB -13.94 dB 4:17 04-Dirty Livin’
DR12 0.00 dB -14.28 dB 4:24 05-Charisma
DR12 -0.07 dB -14.40 dB 4:39 06-Magic Touch
DR12 0.00 dB -13.63 dB 3:32 07-Hard Times
DR12 0.00 dB -14.16 dB 3:44 08-X-Ray Eyes
DR12 0.00 dB -15.01 dB 4:38 09-Save Your Love
––––––––––––––––––––––––––––––––––––––––

Number of tracks: 9
Official DR value: DR12

Samplerate: 44100 Hz
Channels: 2
Bits per sample: 16
Bitrate: 948 kbps
Codec: FLAC

CUETools
[CUETools log; Date: 24.12.2016 20:23:50; Version: 2.1.4]
Pregap length 00:00:33.
[CTDB TOCID: mtu9FVridQaJFDL0_VyyKxBmvNM-] found.
Track | CTDB Status
1 | (67/90) Accurately ripped, or (22/90) differs in 16 samples @00:22:49,01:03:56,01:09:26,02:08:09,03:08:54,03:12:35,03:16:13,04:06:33,04:09:54, or (1/90) differs in 16 samples @00:22:49,01:03:56,01:09:26,02:08:09,03:08:54,03:12:35,03:16:13,04:06:33,04:09:54
2 | (67/90) Accurately ripped, or (22/90) differs in 3 samples @02:17:51,02:46:01,03:48:06, or (1/90) differs in 3 samples @02:17:51,02:46:01,03:48:06
3 | (66/90) Accurately ripped, or (22/90) differs in 2 samples @02:10:57,03:25:60, or (1/90) differs in 2 samples @02:10:57,03:25:60
4 | (66/90) Accurately ripped, or (22/90) differs in 6 samples @00:15:38,00:21:14,00:53:69,01:57:47,03:26:56, or (1/90) differs in 6 samples @00:15:38,00:21:14,00:53:69,01:57:47,03:26:56
5 | (66/90) Accurately ripped, or (22/90) differs in 4 samples @03:27:13,03:29:71,03:35:51,03:36:47, or (1/90) differs in 4 samples @03:27:13,03:29:71,03:35:51,03:36:47
6 | (89/90) Accurately ripped
7 | (66/90) Accurately ripped, or (22/90) differs in 5 samples @00:29:07,01:33:61,02:07:03,02:57:52, or (1/90) differs in 5 samples @00:29:07,01:33:61,02:07:03,02:57:52
8 | (66/90) Accurately ripped, or (22/90) differs in 2 samples @00:21:09,02:30:67, or (1/90) differs in 2 samples @00:21:09,02:30:67
9 | (89/90) Accurately ripped
[AccurateRip ID: 000d7dba-00624e1c-63090b09] found.
Track [ CRC | V2 ] Status
01 [41fbb2e4|83a083da] (042+052/140) Accurately ripped
02 [d05f7736|22c18284] (041+051/138) Accurately ripped
03 [2f18224c|70eba941] (042+052/140) Accurately ripped
04 [646d0f7a|40676787] (042+052/140) Accurately ripped
05 [82af1c96|0bbc8c5b] (041+052/139) Accurately ripped
06 [806adf69|69728d90] (042+051/137) Accurately ripped
07 [05552d70|e369d469] (043+052/140) Accurately ripped
08 [d7af66cb|13314b72] (042+052/140) Accurately ripped
09 [94c34bf2|15d5bdb6] (042+052/139) Accurately ripped
Offsetted by -78:
01 [64f4cf03] (000/140) No match (V2 was not tested)
02 [8817d305] (000/138) No match (V2 was not tested)
03 [c1e70a7b] (000/140) No match (V2 was not tested)
04 [a7f7740a] (000/140) No match (V2 was not tested)
05 [9a7d8dae] (000/139) No match (V2 was not tested)
06 [de75fec3] (003/137) Accurately ripped
07 [7f871e3d] (000/140) No match (V2 was not tested)
08 [6863eac0] (000/140) No match (V2 was not tested)
09 [ea579645] (004/139) Accurately ripped
Offsetted by -67:
01 [430a4491] (000/140) No match (V2 was not tested)
02 [27d60444] (000/138) No match (V2 was not tested)
03 [92312917] (000/140) No match (V2 was not tested)
04 [b70f23b8] (000/140) No match (V2 was not tested)
05 [82827c54] (000/139) No match (V2 was not tested)
06 [e3a4f6c9] (008/137) Accurately ripped
07 [5dc9fd6a] (000/140) No match (V2 was not tested)
08 [18c874e3] (000/140) No match (V2 was not tested)
09 [02eec804] (008/139) Accurately ripped
Offsetted by -66:
01 [2c218274] (000/140) No match (V2 was not tested)
02 [cf251ac0] (000/138) No match (V2 was not tested)
03 [52da3f21] (000/140) No match (V2 was not tested)
04 [b591a16b] (000/140) No match (V2 was not tested)
05 [afe4e7df] (000/139) No match (V2 was not tested)
06 [39aba06f] (000/137) No match (V2 was not tested)
07 [cf1afa69] (000/140) No match
08 [d6460a79] (000/140) No match (V2 was not tested)
09 [05272998] (000/139) No match (V2 was not tested)
Offsetted by 786:
01 [2f29d919] (000/140) No match (V2 was not tested)
02 [94a91611] (000/138) No match (V2 was not tested)
03 [0d173d63] (000/140) No match (V2 was not tested)
04 [be19e428] (000/140) No match (V2 was not tested)
05 [0c65f82d] (000/139) No match (V2 was not tested)
06 [abc3d64d] (011/137) Accurately ripped
07 [d22c388c] (000/140) No match (V2 was not tested)
08 [ffa64208] (000/140) No match (V2 was not tested)
09 [cea90b39] (011/139) Accurately ripped

Track Peak [ CRC32 ] [W/O NULL] [ LOG ]
– 100,0 [404A68CD] [74F35716] CRC32
01 100,0 [D9953BDD] [BC9CB82F]
02 100,0 [2D5206D8] [064B5571]
03 100,0 [6B74E0D5] [0ACB7A1A]
04 100,0 [5EF5D2C6] [A77215DF]
05 100,0 [ED1509EC] [47489465]
06 99,1 [AF418CCE] [4C8D8DF8]
07 100,0 [809CAA7E] [1AA1677A]
08 100,0 [B3F8622B] [D3D830D8]
09 100,0 [4544A191] [7E586C4D]

Kiss - Dynasty (1979)

All thanks go to original releaser …

Kiss – Dynasty (1979) Download, Warez, DDL, Free, Full Album, Torrent, Legal.

Download


  • Recent Posts

  • Recent Tags