Kingdom Come – Master Seven (1997) Repost

Download
Kingdom Come - Master Seven (1997) Repost

Kingdom Come – Master Seven (1997)
EAC Rip | FLAC: Image+Cue+Log | 430 Mb | MP3 CBR 320 kbps | 163 Mb | Scans | Time: 01:01:51
Viceroy Music/Bellaphon | 290.25.002
Hard Rock

"Master Seven" is the seventh album by the band Kingdom Come. Overall, "Master Seven" is very similar to the 1995 release "Twilight Cruiser", though has less hard rock moment. For the most part "Master Seven" is a fairly mellow album, rarely breaking into much that is heavy or hard rocking.

Kingdom Come - Master Seven (1997) Repost
Lenny Wolf | Wikipedia | Amazon

Track Listing

01. Only Rainbows Know (04:10)
02. More Restrictions (05:04)
03. Gonna Loose Her (05:29)
04. Can’t Let Go (06:31)
05. Slow Down (04:01)
06. Seen Enough (05:51)
07. Can’t Let Go (Director’s Cut) (02:39)
08. Gonna Try (05:05)
09. Can’t Take Affection (06:38)
10. Bad I Am (04:00)
11. High On Love (05:26)
12. Get Up My Friend (03:53)
13. Roses (03:03)

Produced by Lenny Wolf

The Band

• Lenny Wolf – vocals, guitars
• Markus Deml – lead guitar
Mark Smith – bass
• Oliver Kiessner – rhythm and acoustic guitars
• Dion Murdock – drums

*****
• Bjorn Tieman – strings

EAC Log
Exact Audio Copy V0.99 prebeta 4 from 23. January 2008

Отчёт EAC об извлечении, выполненном 22. июля 2008, 23:37

Kingdom Come / Master Seven

Дисковод: PLEXTOR DVDR PX-716A Adapter: 0 ID: 0

Режим чтения : Достоверность
Использование точного потока : Да
Отключение кэша аудио : Да
Использование указателей C2 : Нет

Коррекция смещения при чтении : 30
Способность читать области Lead-in и Lead-out : Нет
Заполнение пропущенных сэмплов тишиной : Да
Удаление блоков с тишиной в начале и конце : Нет
При вычислениях CRC использовались нулевые сэмплы : Да
Интерфейс : Встроенный Win32-интерфейс для Win NT/2000

Выходной формат : Внутренние WAV-операции
Формат сэмплов : 44.100 Гц; 16 бит; стерео

TOC извлечённого CD

Трек | Старт | Длительность | Начальный сектор | Конечный сектор
––––––––––––––––––––––––––––––––––-
1 | 0:00.00 | 4:10.27 | 0 | 18776
2 | 4:10.27 | 5:03.53 | 18777 | 41554
3 | 9:14.05 | 5:29.22 | 41555 | 66251
4 | 14:43.27 | 6:30.48 | 66252 | 95549
5 | 21:14.00 | 4:01.00 | 95550 | 113624
6 | 25:15.00 | 5:51.25 | 113625 | 139974
7 | 31:06.25 | 2:39.02 | 139975 | 151901
8 | 33:45.27 | 5:05.28 | 151902 | 174804
9 | 38:50.55 | 6:38.20 | 174805 | 204674
10 | 45:29.00 | 3:59.50 | 204675 | 222649
11 | 49:28.50 | 5:26.25 | 222650 | 247124
12 | 54:55.00 | 3:53.12 | 247125 | 264611
13 | 58:48.12 | 3:02.33 | 264612 | 278294

Характеристики диапазона извлечения и сообщения об ошибках

Выбранный диапазон

Имя файла E:EAC_rip1997 Master SevenKingdom Come – Master Seven.wav

Пиковый уровень 99.9 %
Качество диапазона 100.0 %
CRC теста 1E32542E
CRC копии 1E32542E
Копирование… OK

Ошибок не произошло

AccurateRip: сводка

Трек 1 точное извлечение (доверие 2) [64AA0208]
Трек 2 точное извлечение (доверие 2) [14E639D5]
Трек 3 точное извлечение (доверие 2) [9C56A817]
Трек 4 точное извлечение (доверие 2) [3042A8EB]
Трек 5 точное извлечение (доверие 2) [4B5BC215]
Трек 6 точное извлечение (доверие 2) [0E1643B9]
Трек 7 точное извлечение (доверие 2) [35319157]
Трек 8 точное извлечение (доверие 2) [B49BFC0D]
Трек 9 точное извлечение (доверие 2) [B5AE7062]
Трек 10 точное извлечение (доверие 2) [E8A60ED2]
Трек 11 точное извлечение (доверие 2) [01F1749B]
Трек 12 точное извлечение (доверие 2) [A16046E8]
Трек 13 точное извлечение (доверие 2) [8EB538AD]

Все треки извлечены точно

Конец отчёта

Many thanks to the original uploader: Konstantin_slash

SEE also:
AOR 2002 L.A Reflection [Remastered 2012]
AOR 2012 The Colors Of L.A

James Christian 1999 Rude Awakening [Reissue 2001]

Joe Satriani 2013 Unstoppable Momentum

Kingdom Come 1988 Kingdom Come [3CD – 1 original and 2 subsequent remastered versions]
Kingdom Come 1989 In Your Face [2CD – 1 original and 1 subsequent remastered version]
Kingdom Come 1991 Hands Of Time [Germany 1st Press]
Kingdom Come 1993 Bad Image
Kingdom Come 1995 Twilight Cruiser [2CD – Special Ed./Black Label Ed.]
Kingdom Come 2013 Outlier

Lenny Wolf’s Germany 1982 Lenny Wolf’s Germany [Reissue 2000]
Lenny Wolf 1999 Lenny Wolf

Mark Free 1993 Long Way From Love
Marcie Free 1995 Tormented [Japanese Ed. 1996]

Radioactive 2005 Taken

Steve Stevens 1999 Flamenco A Go Go

Stone Fury 1984 Burns Like A Star
Stone Fury 1986 Let Them Talk

Warrant 1995 Ultraphobic [Japanese Ed.]

Zillion 2004 Zillion ]Japanese Ed.]

……
Welcome to My Blog for more wonderful music!
……

Kingdom Come – Master Seven (1997) Repost Download, Warez, DDL, Free, Full Album, Torrent, Legal.

Download