King Of The World – Cincinnati (2016)

Download
King Of The World - Cincinnati (2016)

King Of The World – Cincinnati (2016)
EAC Rip | FLAC (Img) + Cue + Log ~ 389 Mb | MP3 CBR320 ~ 141 Mb
Scans (JPG, 600 dpi) ~ 43 Mb | RAR 5% Recovery
Electric Blues, Blues Rock | KOTW Records #KOTW 1610

Since the kick-off early 2012 of “K(ing) (O)f (T)he W(orld)” (Erwin Java – guitar, Fokke de Jong – drums/backing vocals, Govert van der Kolm – Hammond/backing vocals and Ruud Weber – lead vocals/bass) things have developed prosperously for this Dutch blues-, rhythm & roots band.
In less then 4 years the band built a solid name in the blues scene through the release of 2 studio – and 1 live album (Can’t go home 2013, KOTW 2014 and Live at Paradiso 2015). All 3 albums scored sheer positive reviews as well in the Dutch as in the foreign music press. But also a great live reputation has been built up through shows at the North Sea Jazz Festival, Rhythm & Blues Night Groningen, Bluesrock Tegelen and the Highlandsfestival. Live TV appearances at late night shows like Pauw & Wittemann, with millions of viewers, contributed to the forementioned status.The group has won 5 Dutch Blues Awards in 2014 (best drummer, best keyboard player, best bass player, best guitarist and best blues band).
May 1st the band took of to the Bamboo Room Studio in Cincinnati USA to record their 4th album with producer Erwin Musper (Van Halen, Scorpions, Def Leppard, David Bowie, Mick Jagger). The band didn’t take long to decide when they got the chance to record with a top producer in the USA , homeland of the blues-, rhythm & roots-music. 13 songs recorded in 10 days resulted in their new CD ‘Cincinnati” that will be released October 7th. All songs written by the band except 1 remake of “Life in the fast lane” by the Eagles.
From the beginning of October 2016 the band will be touring to promote the new CD throughout the Netherland, Germany, Austria and the Czech Republic.

King Of The World - Cincinnati (2016)

Official Website | Discogs | All Music

***************

King Of The World - Cincinnati (2016)

Track List:

01. Voodoo [3:26]
02. Same Old Trouble [4:28]
03. Murder In The First Degree [3:45]
04. Hurt So Bad [4:17]
05. World On Fire [3:42]
06. Feel That Flame [4:21]
07. The Waiting Game [4:58]
08. Heart And Soul [3:18]
09. Howling Dog [5:47]
10. Better Luck Next Time [3:17]
11. Life In The Fast Lane [6:21]
12. She’s Alright [3:24]
13. No Way Out [7:27]

Personnel:

Ruud Weber – lead vocals, bass
Erwin Java – guitar
Fokke de Jong – drum, backing vocals
Govert van der Kolm – Keys, backing vocals

EAC Log
Exact Audio Copy V1.0 beta 3 from 29. August 2011

Отчёт EAC об извлечении, выполненном 21. ноября 2016, 13:05

King Of The World / Cincinnati

Дисковод: ATAPI iHAS424 A Adapter: 0 ID: 0

Режим чтения : Достоверность
Использование точного потока : Да
Отключение кэша аудио : Да
Использование указателей C2 : Нет

Коррекция смещения при чтении : 6
Способность читать области Lead-in и Lead-out : Нет
Заполнение пропущенных сэмплов тишиной : Да
Удаление блоков с тишиной в начале и конце : Нет
При вычислениях CRC использовались нулевые сэмплы : Да
Интерфейс : Установленный внешний ASPI-интерфейс

Выходной формат : Пользовательский кодировщик
Выбранный битрейт : 1024 kBit/s
Качество : Высокий
Добавление ID3-тега : Нет
Утилита сжатия : C:Program FilesExact Audio CopyFLACFLAC.EXE
Дополнительные параметры : -8 -V -T "ARTIST=%artist%" -T "ALBUM=%albumtitle%" -T "DATE=%year%" -T "GENRE=%genre%" -T "COMMENT=ripped by izia1956" %source%

TOC извлечённого CD

Трек | Старт | Длительность | Начальный сектор | Конечный сектор
––––––––––––––––––––––––––––––––––-
1 | 0:00.00 | 3:25.59 | 0 | 15433
2 | 3:25.59 | 4:27.45 | 15434 | 35503
3 | 7:53.29 | 3:45.35 | 35504 | 52413
4 | 11:38.64 | 4:17.02 | 52414 | 71690
5 | 15:55.66 | 3:42.28 | 71691 | 88368
6 | 19:38.19 | 4:21.02 | 88369 | 107945
7 | 23:59.21 | 4:58.15 | 107946 | 130310
8 | 28:57.36 | 3:17.57 | 130311 | 145142
9 | 32:15.18 | 5:47.21 | 145143 | 171188
10 | 38:02.39 | 3:17.23 | 171189 | 185986
11 | 41:19.62 | 6:20.47 | 185987 | 214533
12 | 47:40.34 | 3:23.66 | 214534 | 229824
13 | 51:04.25 | 7:26.43 | 229825 | 263317

Характеристики диапазона извлечения и сообщения об ошибках

Выбранный диапазон

Имя файла D:BitCometKing Of The World2016 – CincinnatiKing Of The World – Cincinnati.wav

Пиковый уровень 94.8 %
Скорость извлечения 3.2 X
Качество диапазона 99.9 %
CRC теста 26F0F6CA
CRC копии 26F0F6CA
Копирование… OK

Ошибок не произошло

AccurateRip: сводка

Трек 1 отсутствует в базе данных
Трек 2 отсутствует в базе данных
Трек 3 отсутствует в базе данных
Трек 4 отсутствует в базе данных
Трек 5 отсутствует в базе данных
Трек 6 отсутствует в базе данных
Трек 7 отсутствует в базе данных
Трек 8 отсутствует в базе данных
Трек 9 отсутствует в базе данных
Трек 10 отсутствует в базе данных
Трек 11 отсутствует в базе данных
Трек 12 отсутствует в базе данных
Трек 13 отсутствует в базе данных

Ни одного трека нет в базе AccurateRip

Конец отчёта

==== Контрольная сумма отчёта B71AF4539C789CC163B6DE59DB6F0036311CE2A705C8706A54B239ED79C2FF46 ====

DR Log
foobar2000 1.2.6 / Dynamic Range Meter 1.1.1
log date: 2016-12-27 21:14:28

––––––––––––––––––––––––––––––––––––––––
Analyzed: King Of The World / Cincinnati
––––––––––––––––––––––––––––––––––––––––

DR Peak RMS Duration Track
––––––––––––––––––––––––––––––––––––––––
DR7 -0.63 dB -8.76 dB 3:26 01-Voodoo
DR7 -0.51 dB -8.10 dB 4:28 02-Same Old Trouble
DR7 -0.46 dB -8.51 dB 3:45 03-Murder In The First Degree
DR7 -0.55 dB -8.69 dB 4:17 04-Hurt So Bad
DR8 -0.55 dB -9.87 dB 3:42 05-World On Fire
DR7 -0.49 dB -9.26 dB 4:21 06-Feel That Flame
DR10 -0.50 dB -13.42 dB 4:58 07-The Waiting Game
DR8 -0.83 dB -9.97 dB 3:18 08-Heart And Soul
DR8 -0.47 dB -10.79 dB 5:47 09-Howling Dog
DR8 -0.54 dB -8.82 dB 3:17 10-Better Luck Next Time
DR6 -0.59 dB -7.79 dB 6:21 11-Life In The Fast Lane
DR7 -0.55 dB -8.11 dB 3:24 12-She’s Alright
DR8 -0.50 dB -12.67 dB 7:27 13-No Way Out
––––––––––––––––––––––––––––––––––––––––

Number of tracks: 13
Official DR value: DR7

Samplerate: 44100 Hz
Channels: 2
Bits per sample: 16
Bitrate: 885 kbps
Codec: FLAC
================================================================================

CUETools Log
[CUETools log; Date: 27.12.2016 21:13:29; Version: 2.1.5]
[CTDB TOCID: oT4IhqN8..Ox_qtcQd243UPIn.U-] found.
Track | CTDB Status
1 | (5/5) Accurately ripped
2 | (5/5) Accurately ripped
3 | (5/5) Accurately ripped
4 | (5/5) Accurately ripped
5 | (5/5) Accurately ripped
6 | (5/5) Accurately ripped
7 | (5/5) Accurately ripped
8 | (5/5) Accurately ripped
9 | (5/5) Accurately ripped
10 | (5/5) Accurately ripped
11 | (5/5) Accurately ripped
12 | (5/5) Accurately ripped
13 | (5/5) Accurately ripped
[AccurateRip ID: 001a1e31-0108af83-b30db60d] found.
Track [ CRC | V2 ] Status
01 [42c369cf|63077a39] (0+1/1) Accurately ripped
02 [80bffce6|d480a00c] (0+1/1) Accurately ripped
03 [e3dfe90f|3c64c74d] (0+1/1) Accurately ripped
04 [b1d6dc41|1913ca3d] (0+1/1) Accurately ripped
05 [c4b84d87|7b480082] (0+1/1) Accurately ripped
06 [80de3924|2c813162] (0+1/1) Accurately ripped
07 [c0110dfd|b4868641] (0+1/1) Accurately ripped
08 [868c645c|2ad05c5c] (0+1/1) Accurately ripped
09 [3dad5719|239ca832] (0+1/1) Accurately ripped
10 [5ac7ae1d|f16ee433] (0+1/1) Accurately ripped
11 [1e1741ec|d213b779] (0+1/1) Accurately ripped
12 [91e0ffea|5bf52785] (0+1/1) Accurately ripped
13 [1aa3361a|157a2b38] (0+1/1) Accurately ripped

Track Peak [ CRC32 ] [W/O NULL] [ LOG ]
– 94,8 [26F0F6CA] [3B121642] CRC32
01 92,9 [5B839689] [0B1C735E]
02 94,2 [8C088E9A] [C8A1CAC1]
03 94,8 [B1E85E2C] [2D0F1F7A]
04 93,8 [ABF70DB9] [65FE1718]
05 93,9 [FBFDD9D3] [982CF9DF]
06 94,5 [27B4E3BF] [A01A9907]
07 94,4 [4B31D2CB] [F5D86197]
08 90,9 [799722B3] [E7DC2826]
09 94,7 [47D36C78] [A298B7F9]
10 94,0 [54864677] [214BDE2E]
11 93,4 [6B7A9C27] [2C72C079]
12 93,9 [4C5DD68B] [823424D7]
13 94,4 [3A375CF6] [C830805E]

King Of The World - Cincinnati (2016)

King Of The World - Cincinnati (2016)

All thanks go to izia1956

> Visit my blog <

Download:

King Of The World – Cincinnati (2016) Download, Warez, DDL, Free, Full Album, Torrent, Legal.

Download