Kemuri – Little Playmate (1997)

Download
Kemuri - Little Playmate (1997)

Kemuri – Little Playmate (1997)
EAC Rip | FLAC (Tracks) +CUE, LOG | 318 MB | Covers Included
Genre: Ska-Punk | Label: Roadrunner | Catalog Number: RR 8801-2

If the hyped-up ska of the Mighty Mighty Bosstones is your thing, you’re sure to also dig the Japanese group Kemuri. Their debut full-length, Little Plaything, is a supercharged explosion of fast drumming, horn bursts, and guitar playing that alternates equally between distorted metal and clean ska. Their lyrics deal with the usual alterna-ska themes that the Bosstones, Sublime, etc., have touched upon, such as working hard at a nowhere job ("Workin’ Dayz") and keeping a P.M.A. – which means positive mental attitude – throughout life’s trials and tribulations (the opening "New Generation"). The album does successfully convey the party-out-of-control atmosphere of today’s ska movement, as evidenced on "Rainy Saturday," "Knockin’ on the Door," and "Prayer," while "Don’t Know" sounds quite a bit like early Fishbone. But not all of Little Plaything hits the mark, especially the annoyingly clich├ęd introduction to the above-mentioned track "Workin’ Dayz," which features a Valley Girl doing her usual trademark spiel. But at the very least, Kemuri’s Little Plaything is equal to the majority of the ska-laced alternative that ruled MTV and the radio airwaves in 1997.

EAC Log
EAC extraction logfile from 29. August 2008, 19:27 for CD
Kemuri / Little Playmate

Used drive : SONY DVD+-RW DW-D56A Adapter: 1 ID: 0
Read mode : Secure with NO C2, accurate stream, disable cache
Read offset correction : 12
Overread into Lead-In and Lead-Out : No

Used output format : C:Program FilesExact Audio Copyflac.exe (User Defined Encoder)
192 kBit/s
Additional command line options : -8 -A tukey(0.25) -A gauss(0.1875) -b 4096 -V -T "artist=%a" -T "title=%t" -T "album=%g" -T "date=%y" -T "tracknumber=%n" -T "genre=%m" %s –sector-align

Other options :
Fill up missing offset samples with silence : Yes
Delete leading and trailing silent blocks : No
Native Win32 interface for Win NT & 2000

Track 1
Filename E:FLACSKemuriLittle Playmate1 – Kemuri – New Generation.wav

Pre-gap length 0:00:02.00

Peak level 100.0 %
Track quality 100.0 %
Test CRC B8ED0E5A
Copy CRC B8ED0E5A
Copy OK

Track 2
Filename E:FLACSKemuriLittle Playmate2 – Kemuri – Knockin’ On The Door.wav

Peak level 100.0 %
Track quality 100.0 %
Test CRC DB9B18E5
Copy CRC DB9B18E5
Copy OK

Track 3
Filename E:FLACSKemuriLittle Playmate3 – Kemuri – Prayer.wav

Peak level 100.0 %
Track quality 100.0 %
Test CRC D5D57F28
Copy CRC D5D57F28
Copy OK

Track 4
Filename E:FLACSKemuriLittle Playmate4 – Kemuri – Workin’ Dayz.wav

Peak level 100.0 %
Track quality 100.0 %
Test CRC 035B894C
Copy CRC 035B894C
Copy OK

Track 5
Filename E:FLACSKemuriLittle Playmate5 – Kemuri – Rainy Saturday.wav

Peak level 100.0 %
Track quality 100.0 %
Test CRC E7FFC5F6
Copy CRC E7FFC5F6
Copy OK

Track 6
Filename E:FLACSKemuriLittle Playmate6 – Kemuri – Circle Of Life.wav

Peak level 100.0 %
Track quality 100.0 %
Test CRC 609A9D64
Copy CRC 609A9D64
Copy OK

Track 7
Filename E:FLACSKemuriLittle Playmate7 – Kemuri – Sunset.wav

Pre-gap length 0:00:01.60

Peak level 100.0 %
Track quality 99.9 %
Test CRC 4FF42FA9
Copy CRC 4FF42FA9
Copy OK

Track 8
Filename E:FLACSKemuriLittle Playmate8 – Kemuri – Live Up To Ya Rights!.wav

Peak level 100.0 %
Track quality 100.0 %
Test CRC E16CB1F3
Copy CRC E16CB1F3
Copy OK

Track 9
Filename E:FLACSKemuriLittle Playmate9 – Kemuri – Don’t Know.wav

Peak level 100.0 %
Track quality 99.8 %
Test CRC F46E2D9C
Copy CRC F46E2D9C
Copy OK

Track 10
Filename E:FLACSKemuriLittle Playmate10 – Kemuri – Ato-Ichinen.wav

Peak level 100.0 %
Track quality 100.0 %
Test CRC C07813C3
Copy CRC C07813C3
Copy OK

Track 11
Filename E:FLACSKemuriLittle Playmate11 – Kemuri – Mercy.wav

Peak level 100.0 %
Track quality 100.0 %
Test CRC 6658F8A0
Copy CRC 6658F8A0
Copy OK

Track 12
Filename E:FLACSKemuriLittle Playmate12 – Kemuri – Givin’ Up.wav

Peak level 100.0 %
Track quality 100.0 %
Test CRC A0EB2888
Copy CRC A0EB2888
Copy OK

Track 13
Filename E:FLACSKemuriLittle Playmate13 – Kemuri – Yellow Survivors.wav

Peak level 100.0 %
Track quality 100.0 %
Test CRC 649CCCCA
Copy CRC 649CCCCA
Copy OK

Track 14
Filename E:FLACSKemuriLittle Playmate14 – Kemuri – On The Street.wav

Peak level 100.0 %
Track quality 100.0 %
Test CRC 54D1F5ED
Copy CRC 54D1F5ED
Copy OK

No errors occured

End of status report

Tracklist:
01. New Generation (2:31)
02. Knockin on the Door (2:06)
03. Prayer (3:21)
04. Workin Dayz (4:00)
05. Rainy Saturday (3:16)
06. Circle of Life (3:41)
07. Sunset (3:20)
08. Live up to Ya Rights! (0:55)
09. Dont Know (1:26)
10. Ato-Ichinen (1:05)
11. Mercy (3:07)
12. Givin Up (1:58)
13. Yellow Survivors (3:13)
14. On the Street (3:32)

Kemuri – Little Playmate (1997) Download, Warez, DDL, Free, Full Album, Torrent, Legal.

Download