Keith Urban – Get Closer (2010) [Deluxe Limited Edition]

Download
Keith Urban - Get Closer (2010) [Deluxe Limited Edition]

Keith Urban – Get Closer (2010) [Deluxe Limited Edition]
XLD Rip | FLAC: Tracks+Cue+Log | 475 Mb | MP3 CBR 320 kbps | 164 Mb | Time: 01:10:40
Capitol Records Nashville/Hit Red Records | 509999 47071 2 0
Country Rock, Pop Rock

Get Closer is the seventh studio album by Australian country music artist Keith Urban. It was released 16 November 2010 on Capitol Nashville. It produced three singles between 2010 and 2011, all of which went to number one on the U.S. Billboard Hot Country Songs charts. This limited deluxe edition (Target Exclusive) of Get Closer includes 3 exclusive tracks plus 4 additional bonus tracks of Keith’s biggest hits performed live.

Keith Urban - Get Closer (2010) [Deluxe Limited Edition]
Keith Urban
Wikipedia | Amazon

Track Listing

01. Put You In A Song (03:40)
02. You Gonna Fly (03:37)
03. All For You (03:38)
04. Long Hot Summer (04:34)
05. Without You (03:56)
06. Georgia Woods (05:17)
07. Right On Back To You (04:49)
08. Shut Out The Lights (04:18)
09. Big Promises (Bonus track) (03:48)
10. The Luxury Of Knowing (Bonus track) (04:16)
11. Winning (Bonus track) (03:41)
12. Once In A Lifetime (Live bonus track) (07:10)
13. You Look Good In My Shirt (Live bonus track) (05:19)
14. Better Life (Live bonus track) (05:42)
15. Everybody (Live bonus track) (06:55)

Co-produced by Dann Huff (tracks: 1 to 11), Keith Urban (tracks: 1 to 11)
Produced by Chris McHugh (tracks: 12 to 15), Keith Urban (tracks: 12 to 15)

XLD Log
X Lossless Decoder version 20101117 (125.1)

XLD extraction logfile from 2010-11-18 15:24:57 -0500

Keith Urban / Get Closer [Target Deluxe Edition]

Used drive : MATSHITA DVD-R UJ-868 (revision KB19)

Ripper mode : CDParanoia III 10.2
Disable audio cache : OK for the drive with a cache less than 2750KiB
Make use of C2 pointers : NO
Read offset correction : 102
Max retry count : 100
Gap status : Analyzed, Appended

TOC of the extracted CD
Track | Start | Length | Start sector | End sector
––––––––––––––––––––––––––––-
1 | 00:00:00 | 03:40:29 | 0 | 16528
2 | 03:40:29 | 03:36:65 | 16529 | 32793
3 | 07:17:19 | 03:37:73 | 32794 | 49141
4 | 10:55:17 | 04:33:44 | 49142 | 69660
5 | 15:28:61 | 03:56:02 | 69661 | 87362
6 | 19:24:63 | 05:17:05 | 87363 | 111142
7 | 24:41:68 | 04:48:61 | 111143 | 132803
8 | 29:30:54 | 04:18:13 | 132804 | 152166
9 | 33:48:67 | 03:47:39 | 152167 | 169230
10 | 37:36:31 | 04:15:44 | 169231 | 188399
11 | 41:52:00 | 03:40:44 | 188400 | 204943
12 | 45:32:44 | 07:10:22 | 204944 | 237215
13 | 52:42:66 | 05:18:63 | 237216 | 261128
14 | 58:01:54 | 05:42:20 | 261129 | 286798
15 | 63:43:74 | 06:55:09 | 286799 | 317932

AccurateRip Summary
Track 01 : Not Found
Track 02 : Not Found
Track 03 : Not Found
Track 04 : Not Found
Track 05 : Not Found
Track 06 : Not Found
Track 07 : Not Found
Track 08 : Not Found
Track 09 : Not Found
Track 10 : Not Found
Track 11 : Not Found
Track 12 : Not Found
Track 13 : Not Found
Track 14 : Not Found
Track 15 : Not Found
->0 track(s) accurately ripped, 0 track(s) not, 15 track(s) not found

All Tracks
Album gain : -5.86 dB
Peak : 0.999817

Track 01
Filename : /Volumes/Data/XLD Rips/Keith Urban – Get Closer [Target Deluxe Edition] (2010) [FLAC (level 8)]/01 Put you in a song.flac
/Volumes/Data/XLD Rips/Keith Urban – Get Closer [Target Deluxe Edition] (2010) [LAME MP3 (VBR-new quality 0.0)]/01 Put you in a song.mp3
Pre-gap length : 00:02:00

Track gain : -5.36 dB
Peak : 0.999756
CRC32 hash (test run) : FFDAF63F
CRC32 hash : FFDAF63F
CRC32 hash (skip zero) : 870E9284
AccurateRip signature : 324AD04B
->Track not present in AccurateRip database.
Statistics
Read error : 0
Skipped (treated as error) : 0
Edge jitter error (maybe fixed) : 0
Atom jitter error (maybe fixed) : 0
Drift error (maybe fixed) : 0
Dropped bytes error (maybe fixed) : 0
Duplicated bytes error (maybe fixed) : 0
Inconsistency in error sectors : 0

Track 02
Filename : /Volumes/Data/XLD Rips/Keith Urban – Get Closer [Target Deluxe Edition] (2010) [FLAC (level 8)]/02 You Gonna Fly.flac
/Volumes/Data/XLD Rips/Keith Urban – Get Closer [Target Deluxe Edition] (2010) [LAME MP3 (VBR-new quality 0.0)]/02 You Gonna Fly.mp3
Pre-gap length : 00:01:30

Track gain : -5.62 dB
Peak : 0.995270
CRC32 hash (test run) : A790CB9E
CRC32 hash : A790CB9E
CRC32 hash (skip zero) : FDA7EEA7
AccurateRip signature : 658AF993
->Track not present in AccurateRip database.
Statistics
Read error : 0
Skipped (treated as error) : 0
Edge jitter error (maybe fixed) : 0
Atom jitter error (maybe fixed) : 0
Drift error (maybe fixed) : 0
Dropped bytes error (maybe fixed) : 0
Duplicated bytes error (maybe fixed) : 0
Inconsistency in error sectors : 0

Track 03
Filename : /Volumes/Data/XLD Rips/Keith Urban – Get Closer [Target Deluxe Edition] (2010) [FLAC (level 8)]/03 All For You.flac
/Volumes/Data/XLD Rips/Keith Urban – Get Closer [Target Deluxe Edition] (2010) [LAME MP3 (VBR-new quality 0.0)]/03 All For You.mp3
Pre-gap length : 00:00:21

Track gain : -6.22 dB
Peak : 0.999817
CRC32 hash (test run) : 05870844
CRC32 hash : 05870844
CRC32 hash (skip zero) : 432E4A29
AccurateRip signature : DDCD4F12
->Track not present in AccurateRip database.
Statistics
Read error : 0
Skipped (treated as error) : 0
Edge jitter error (maybe fixed) : 0
Atom jitter error (maybe fixed) : 0
Drift error (maybe fixed) : 0
Dropped bytes error (maybe fixed) : 0
Duplicated bytes error (maybe fixed) : 0
Inconsistency in error sectors : 0

Track 04
Filename : /Volumes/Data/XLD Rips/Keith Urban – Get Closer [Target Deluxe Edition] (2010) [FLAC (level 8)]/04 Long Hot Summer.flac
/Volumes/Data/XLD Rips/Keith Urban – Get Closer [Target Deluxe Edition] (2010) [LAME MP3 (VBR-new quality 0.0)]/04 Long Hot Summer.mp3
Pre-gap length : 00:00:74

Track gain : -5.76 dB
Peak : 0.997223
CRC32 hash (test run) : E2F1A069
CRC32 hash : E2F1A069
CRC32 hash (skip zero) : E4499EEF
AccurateRip signature : E15A34E2
->Track not present in AccurateRip database.
Statistics
Read error : 0
Skipped (treated as error) : 0
Edge jitter error (maybe fixed) : 0
Atom jitter error (maybe fixed) : 0
Drift error (maybe fixed) : 0
Dropped bytes error (maybe fixed) : 0
Duplicated bytes error (maybe fixed) : 0
Inconsistency in error sectors : 0

Track 05
Filename : /Volumes/Data/XLD Rips/Keith Urban – Get Closer [Target Deluxe Edition] (2010) [FLAC (level 8)]/05 Without You.flac
/Volumes/Data/XLD Rips/Keith Urban – Get Closer [Target Deluxe Edition] (2010) [LAME MP3 (VBR-new quality 0.0)]/05 Without You.mp3
Pre-gap length : 00:01:00

Track gain : -4.69 dB
Peak : 0.949127
CRC32 hash (test run) : 74E20B05
CRC32 hash : 74E20B05
CRC32 hash (skip zero) : 86024ECD
AccurateRip signature : 966EFC02
->Track not present in AccurateRip database.
Statistics
Read error : 0
Skipped (treated as error) : 0
Edge jitter error (maybe fixed) : 0
Atom jitter error (maybe fixed) : 0
Drift error (maybe fixed) : 0
Dropped bytes error (maybe fixed) : 0
Duplicated bytes error (maybe fixed) : 0
Inconsistency in error sectors : 0

Track 06
Filename : /Volumes/Data/XLD Rips/Keith Urban – Get Closer [Target Deluxe Edition] (2010) [FLAC (level 8)]/06 Georgia Woods.flac
/Volumes/Data/XLD Rips/Keith Urban – Get Closer [Target Deluxe Edition] (2010) [LAME MP3 (VBR-new quality 0.0)]/06 Georgia Woods.mp3
Pre-gap length : 00:01:23

Track gain : -6.05 dB
Peak : 0.953308
CRC32 hash (test run) : 8C9AC129
CRC32 hash : 8C9AC129
CRC32 hash (skip zero) : 30F75668
AccurateRip signature : CF55098E
->Track not present in AccurateRip database.
Statistics
Read error : 0
Skipped (treated as error) : 0
Edge jitter error (maybe fixed) : 0
Atom jitter error (maybe fixed) : 0
Drift error (maybe fixed) : 0
Dropped bytes error (maybe fixed) : 0
Duplicated bytes error (maybe fixed) : 0
Inconsistency in error sectors : 0

Track 07
Filename : /Volumes/Data/XLD Rips/Keith Urban – Get Closer [Target Deluxe Edition] (2010) [FLAC (level 8)]/07 Right On Back To You.flac
/Volumes/Data/XLD Rips/Keith Urban – Get Closer [Target Deluxe Edition] (2010) [LAME MP3 (VBR-new quality 0.0)]/07 Right On Back To You.mp3
Pre-gap length : 00:01:68

Track gain : -6.33 dB
Peak : 0.999817
CRC32 hash (test run) : EBBBBED5
CRC32 hash : EBBBBED5
CRC32 hash (skip zero) : 6EF596AD
AccurateRip signature : F4F4C415
->Track not present in AccurateRip database.
Statistics
Read error : 0
Skipped (treated as error) : 0
Edge jitter error (maybe fixed) : 0
Atom jitter error (maybe fixed) : 0
Drift error (maybe fixed) : 0
Dropped bytes error (maybe fixed) : 0
Duplicated bytes error (maybe fixed) : 0
Inconsistency in error sectors : 0

Track 08
Filename : /Volumes/Data/XLD Rips/Keith Urban – Get Closer [Target Deluxe Edition] (2010) [FLAC (level 8)]/08 Shut Out The Lights.flac
/Volumes/Data/XLD Rips/Keith Urban – Get Closer [Target Deluxe Edition] (2010) [LAME MP3 (VBR-new quality 0.0)]/08 Shut Out The Lights.mp3
Pre-gap length : 00:01:43

Track gain : -4.80 dB
Peak : 0.997131
CRC32 hash (test run) : CD19394D
CRC32 hash : CD19394D
CRC32 hash (skip zero) : FA669FA1
AccurateRip signature : 3B632263
->Track not present in AccurateRip database.
Statistics
Read error : 0
Skipped (treated as error) : 0
Edge jitter error (maybe fixed) : 0
Atom jitter error (maybe fixed) : 0
Drift error (maybe fixed) : 0
Dropped bytes error (maybe fixed) : 0
Duplicated bytes error (maybe fixed) : 0
Inconsistency in error sectors : 0

Track 09
Filename : /Volumes/Data/XLD Rips/Keith Urban – Get Closer [Target Deluxe Edition] (2010) [FLAC (level 8)]/09 Big promises.flac
/Volumes/Data/XLD Rips/Keith Urban – Get Closer [Target Deluxe Edition] (2010) [LAME MP3 (VBR-new quality 0.0)]/09 Big promises.mp3
Pre-gap length : 00:01:73

Track gain : -5.45 dB
Peak : 0.962311
CRC32 hash (test run) : 44C8EECD
CRC32 hash : 44C8EECD
CRC32 hash (skip zero) : C8618B34
AccurateRip signature : DD3DB95A
->Track not present in AccurateRip database.
Statistics
Read error : 0
Skipped (treated as error) : 0
Edge jitter error (maybe fixed) : 0
Atom jitter error (maybe fixed) : 0
Drift error (maybe fixed) : 0
Dropped bytes error (maybe fixed) : 0
Duplicated bytes error (maybe fixed) : 0
Inconsistency in error sectors : 0

Track 10
Filename : /Volumes/Data/XLD Rips/Keith Urban – Get Closer [Target Deluxe Edition] (2010) [FLAC (level 8)]/10 The luxury of knowing.flac
/Volumes/Data/XLD Rips/Keith Urban – Get Closer [Target Deluxe Edition] (2010) [LAME MP3 (VBR-new quality 0.0)]/10 The luxury of knowing.mp3
Pre-gap length : 00:01:17

Track gain : -4.61 dB
Peak : 0.999817
CRC32 hash (test run) : C081676C
CRC32 hash : C081676C
CRC32 hash (skip zero) : 3072CC5E
AccurateRip signature : 78B0D976
->Track not present in AccurateRip database.
Statistics
Read error : 0
Skipped (treated as error) : 0
Edge jitter error (maybe fixed) : 0
Atom jitter error (maybe fixed) : 0
Drift error (maybe fixed) : 0
Dropped bytes error (maybe fixed) : 0
Duplicated bytes error (maybe fixed) : 0
Inconsistency in error sectors : 0

Track 11
Filename : /Volumes/Data/XLD Rips/Keith Urban – Get Closer [Target Deluxe Edition] (2010) [FLAC (level 8)]/11 Winning.flac
/Volumes/Data/XLD Rips/Keith Urban – Get Closer [Target Deluxe Edition] (2010) [LAME MP3 (VBR-new quality 0.0)]/11 Winning.mp3
Pre-gap length : 00:01:27

Track gain : -6.45 dB
Peak : 0.980133
CRC32 hash (test run) : 3CC72A93
CRC32 hash : 3CC72A93
CRC32 hash (skip zero) : 581615D4
AccurateRip signature : 9CA3FA0E
->Track not present in AccurateRip database.
Statistics
Read error : 0
Skipped (treated as error) : 0
Edge jitter error (maybe fixed) : 0
Atom jitter error (maybe fixed) : 0
Drift error (maybe fixed) : 0
Dropped bytes error (maybe fixed) : 0
Duplicated bytes error (maybe fixed) : 0
Inconsistency in error sectors : 0

Track 12
Filename : /Volumes/Data/XLD Rips/Keith Urban – Get Closer [Target Deluxe Edition] (2010) [FLAC (level 8)]/12 Once in a lifetime.flac
/Volumes/Data/XLD Rips/Keith Urban – Get Closer [Target Deluxe Edition] (2010) [LAME MP3 (VBR-new quality 0.0)]/12 Once in a lifetime.mp3
Pre-gap length : 00:02:43

Track gain : -5.92 dB
Peak : 0.916290
CRC32 hash (test run) : C700C7DB
CRC32 hash : C700C7DB
CRC32 hash (skip zero) : 644E21D5
AccurateRip signature : F056F3F9
->Track not present in AccurateRip database.
Statistics
Read error : 0
Skipped (treated as error) : 0
Edge jitter error (maybe fixed) : 0
Atom jitter error (maybe fixed) : 0
Drift error (maybe fixed) : 0
Dropped bytes error (maybe fixed) : 0
Duplicated bytes error (maybe fixed) : 0
Inconsistency in error sectors : 0

Track 13
Filename : /Volumes/Data/XLD Rips/Keith Urban – Get Closer [Target Deluxe Edition] (2010) [FLAC (level 8)]/13 You look good in my shirt.flac
/Volumes/Data/XLD Rips/Keith Urban – Get Closer [Target Deluxe Edition] (2010) [LAME MP3 (VBR-new quality 0.0)]/13 You look good in my shirt.mp3

Track gain : -6.72 dB
Peak : 0.915710
CRC32 hash (test run) : FECA1098
CRC32 hash : FECA1098
CRC32 hash (skip zero) : ED652083
AccurateRip signature : C23FB85F
->Track not present in AccurateRip database.
Statistics
Read error : 0
Skipped (treated as error) : 0
Edge jitter error (maybe fixed) : 0
Atom jitter error (maybe fixed) : 0
Drift error (maybe fixed) : 0
Dropped bytes error (maybe fixed) : 0
Duplicated bytes error (maybe fixed) : 0
Inconsistency in error sectors : 0

Track 14
Filename : /Volumes/Data/XLD Rips/Keith Urban – Get Closer [Target Deluxe Edition] (2010) [FLAC (level 8)]/14 Better Life.flac
/Volumes/Data/XLD Rips/Keith Urban – Get Closer [Target Deluxe Edition] (2010) [LAME MP3 (VBR-new quality 0.0)]/14 Better Life.mp3

Track gain : -5.43 dB
Peak : 0.914337
CRC32 hash (test run) : 1141105A
CRC32 hash : 1141105A
CRC32 hash (skip zero) : 4EA30463
AccurateRip signature : D1FE81C3
->Track not present in AccurateRip database.
Statistics
Read error : 0
Skipped (treated as error) : 0
Edge jitter error (maybe fixed) : 0
Atom jitter error (maybe fixed) : 0
Drift error (maybe fixed) : 0
Dropped bytes error (maybe fixed) : 0
Duplicated bytes error (maybe fixed) : 0
Inconsistency in error sectors : 0

Track 15
Filename : /Volumes/Data/XLD Rips/Keith Urban – Get Closer [Target Deluxe Edition] (2010) [FLAC (level 8)]/15 Everybody.flac
/Volumes/Data/XLD Rips/Keith Urban – Get Closer [Target Deluxe Edition] (2010) [LAME MP3 (VBR-new quality 0.0)]/15 Everybody.mp3

Track gain : -5.50 dB
Peak : 0.916931
CRC32 hash (test run) : D93458B1
CRC32 hash : D93458B1
CRC32 hash (skip zero) : F414C0EA
AccurateRip signature : 47A0018C
->Track not present in AccurateRip database.
Statistics
Read error : 0
Skipped (treated as error) : 0
Edge jitter error (maybe fixed) : 0
Atom jitter error (maybe fixed) : 0
Drift error (maybe fixed) : 0
Dropped bytes error (maybe fixed) : 0
Duplicated bytes error (maybe fixed) : 0
Inconsistency in error sectors : 0

No errors occurred

End of status report

Many thanks to the original uploader: soniclover27

SEE also:
Keith Urban 1997 In The Ranch [Reissue 2004]
Keith Urban 1999 Keith Urban
Keith Urban 2002 Golden Road
Keith Urban 2004 Be Here
Keith Urban 2005 Days Go By (Compilation)
Keith Urban 2005 Livin’ Right Now [DVD]
Keith Urban 2006 Love, Pain & The Whole Crazy Thing
Keith Urban 2007 Greatest Hits: 18 Kids
Keith Urban 2008 Love, Pain & The Whole Crazy World Tour – Live [DVD]
Keith Urban 2009 Defying Gravity
Keith Urban 2010 Get Closer
Keith Urban 2013 Fuse [Deluxe Edition]

……
Welcome to My Blog for more wonderful music!
……
Password: pass

Keith Urban – Get Closer (2010) [Deluxe Limited Edition] Download, Warez, DDL, Free, Full Album, Torrent, Legal.

Download