Keith Jarrett – A Multitude Of Angels (2016) {4CD Set ECM Japan UCCE-1161~64}

Download
Keith Jarrett - A Multitude Of Angels (2016) {4CD Set ECM Japan UCCE-1161~64}

Keith Jarrett – A Multitude Of Angels (2016) {4CD Set ECM Japan UCCE-1161~64}
EAC rip (secure mode) | FLAC (tracks)+CUE+LOG -> 1.06 Gb | MP3 @320 -> 697 Mb
Full Artwork @ 600 dpi (png) -> 846 Mb | 5% repair rar
© 1996, 2016 ECM Records / Universal Music Japan | UCCE-1161~64
Jazz / Contemporary Jazz / Improvisation / Modern Creative / Post Bop / Piano Solo

Keith Jarrett’s numerous volumes of improvised solo piano recordings are all treasure troves of spontaneous music making. Documented since the 1970s, they reveal the opening of his music as it readily embraces classical and sacred music influences, filters out what is unnecessary in his technique, and encounters the depth and breadth of the jazz tradition and his own unique abilities as a composer. The four discs in A Multitude of Angels were recorded in as many Italian cities during the last week of October 1996 – some 20 months after the concert captured on La Scala.

Keith Jarrett - A Multitude Of Angels (2016) {4CD Set ECM Japan UCCE-1161~64}

These were his last concerts before being sidelined for two years from chronic fatigue syndrome. Jarrett is musician, producer, and engineer here. The performances were captured to his Sonosax DAT recorder seemingly without the view of release at the time. They were sent direct from the piano to transformer-less microphones to the machine, with no mixing board in between. While it’s not as raw as The Melody, At Night, With You, his set of intimate home recordings, there is a less airy, less pristine feel in the sound of these recordings.

Keith Jarrett - A Multitude Of Angels (2016) {4CD Set ECM Japan UCCE-1161~64}

Sound is only one aspect of what makes these recordings different. In the accompanying booklet, Jarrett describes these discs as the "pinnacle" of his career in the sense that these were uninterrupted performances (no set breaks) in smaller rooms with quiet audiences (a big bugaboo of his, all before the advent of the digital age). Though he was weakened by the burden of his as yet undiagnosed illness, he goes for it here. The gorgeous interpolations of folk, funky gospel, and jazz during the Modena concert’s first ten minutes (disc one) are among the most joyous in his catalog. Jarrett describes these shows as if he were ordained by fate to be in the moment as if "playing for the last time."

Keith Jarrett - A Multitude Of Angels (2016) {4CD Set ECM Japan UCCE-1161~64}

The unfettered feel in his improvisation is sometimes choppier and more rugged than elsewhere in his catalog – though his playing remains astonishing both technically and creatively. Check the knotty classical improvisations in the second part of Modena where he encounters – and extrapolates on – ragtime and modal jazz in blocks, feints, stops, and starts that all flow through the well without obstacle. Processional balladic improv introduces the first half of the Torino show on disc three. It shifts and shimmers, emerging as a wedding of Bach and torch song before stripping itself to the bone. Its final section investigates a repetitive phrase with an extended view of harmony and rhythm.

Keith Jarrett - A Multitude Of Angels (2016) {4CD Set ECM Japan UCCE-1161~64}

The final show in Genova (disc four) concludes with a fantastically funky blues encore before the pianist delivers a reading of Harold Arlen’s "Over the Rainbow." Jarrett’s never delivered it with such tenderness before – at least on record – as he illuminates the hidden magic in its lithe harmony. For fans of the pianist, A Multitude of Angels is an indispensable document. It’s not only wildly creative, but deeply soulful, spiritual, and dazzling in both variety and facility.

Keith Jarrett - A Multitude Of Angels (2016) {4CD Set ECM Japan UCCE-1161~64}

A Multitude of Angels is a 4-CD set of recordings from a series of solo concerts in Italy in October 1996, documenting the conclusion of Keith Jarrett’s experiments with long-form improvisation in performances from Modena, Ferrara, Turin, and Genova. “These were the last concerts I played having no breaks within each set,” Jarrett explains in his liner notes. The arc of the music is characteristically comprehensive: “Jazz is ever present here, alongside my deep closeness with classical music (modern and ancient, Ives and Bach).”

Keith Jarrett - A Multitude Of Angels (2016) {4CD Set ECM Japan UCCE-1161~64}


ECM INFO
AAJ INFO
CDJapan INFO

Personnel:
Keith Jarrett – piano

tracklist:
CD1 – Modena

01 – Part I
02 – Part II
03 – Danny Boy

Keith Jarrett - A Multitude Of Angels (2016) {4CD Set ECM Japan UCCE-1161~64}

Keith Jarrett - A Multitude Of Angels (2016) {4CD Set ECM Japan UCCE-1161~64}

CD2 – Ferrara
01 – Part I
02 – Part II
03 – Encore

Keith Jarrett - A Multitude Of Angels (2016) {4CD Set ECM Japan UCCE-1161~64}

Keith Jarrett - A Multitude Of Angels (2016) {4CD Set ECM Japan UCCE-1161~64}

CD3 – Torino
01 – Part I
02 – Part II

Keith Jarrett - A Multitude Of Angels (2016) {4CD Set ECM Japan UCCE-1161~64}

Keith Jarrett - A Multitude Of Angels (2016) {4CD Set ECM Japan UCCE-1161~64}

CD4 – Genova
01 – Part I
02 – Part II
03 – Encore
04 – Over The Rainbow

Keith Jarrett - A Multitude Of Angels (2016) {4CD Set ECM Japan UCCE-1161~64}

Keith Jarrett - A Multitude Of Angels (2016) {4CD Set ECM Japan UCCE-1161~64}
EAC log CD1
Exact Audio Copy V1.1 from 23. June 2015

EAC extraction logfile from 14. February 2017, 7:30

Keith Jarrett / A Multitude Of Angels (CD1) – Modena

Used drive : TSSTcorpCDDVDW SE-208DB Adapter: 1 ID: 1

Read mode : Secure
Utilize accurate stream : Yes
Defeat audio cache : Yes
Make use of C2 pointers : No

Read offset correction : 6
Overread into Lead-In and Lead-Out : No
Fill up missing offset samples with silence : Yes
Delete leading and trailing silent blocks : No
Null samples used in CRC calculations : Yes
Used interface : Native Win32 interface for Win NT & 2000
Gap handling : Appended to previous track

Used output format : User Defined Encoder
Selected bitrate : 1024 kBit/s
Quality : High
Add ID3 tag : No
Command line compressor : C:Program Files (x86)FLAC Frontendtoolsflac.exe
Additional command line options : -8 -V -T "ARTIST=%artist%" -T "TITLE=%title%" -T "ALBUM=%albumtitle%" -T "DATE=%year%" -T "TRACKNUMBER=%tracknr%" -T "TOTALTRACKS=%numtracks%" -T "GENRE=%genre%" -T "ALBUMARTIST=%albumartist%" -T "ALBUM ARTIST=%albumartist%" -T "COMMENT=EAC Secure Mode, Test & Copy, AccurateRip, FLAC -8" %source%

TOC of the extracted CD

Track | Start | Length | Start sector | End sector
––––––––––––––––––––––––––––-
1 | 0:00.00 | 34:18.54 | 0 | 154403
2 | 34:18.54 | 31:19.73 | 154404 | 295401
3 | 65:38.52 | 5:00.61 | 295402 | 317962

Track 1

Filename D:_EACKeith Jarrett – A Multitude Of Angels (2016) [FLAC] {4CD Set ECM Japan UCCE-1161~64}CD1 – Modena1 – Part I.wav

Pre-gap length 0:00:02.00

Peak level 87.5 %
Extraction speed 1.9 X
Track quality 99.9 %
Test CRC 4FC87719
Copy CRC 4FC87719
Accurately ripped (confidence 4) [E07B1692] (AR v2)
Copy OK

Track 2

Filename D:_EACKeith Jarrett – A Multitude Of Angels (2016) [FLAC] {4CD Set ECM Japan UCCE-1161~64}CD1 – Modena2 – Part II.wav

Peak level 87.5 %
Extraction speed 2.7 X
Track quality 100.0 %
Test CRC B17BEE7B
Copy CRC B17BEE7B
Accurately ripped (confidence 4) [E67A2E20] (AR v2)
Copy OK

Track 3

Filename D:_EACKeith Jarrett – A Multitude Of Angels (2016) [FLAC] {4CD Set ECM Japan UCCE-1161~64}CD1 – Modena3 – Danny Boy.wav

Peak level 57.0 %
Extraction speed 2.5 X
Track quality 99.9 %
Test CRC AA2620EC
Copy CRC AA2620EC
Accurately ripped (confidence 3) [2827C0FF] (AR v2)
Copy OK

All tracks accurately ripped

No errors occurred

End of status report

–– CUETools DB Plugin V2.1.6

[CTDB TOCID: AGftZb9I3UmCScNSTHTDT0Ybd9I-] found
Submit result: AGftZb9I3UmCScNSTHTDT0Ybd9I- has been confirmed
Track | CTDB Status
1 | (74/74) Accurately ripped
2 | (74/74) Accurately ripped
3 | (74/74) Accurately ripped

==== Log checksum 8ED0E4D7F5A98E087467D8E41B956082997028BB957FE340678D70620CA38CA5 ====

EAC log CD2
Exact Audio Copy V1.1 from 23. June 2015

EAC extraction logfile from 14. February 2017, 9:53

Keith Jarrett / A Multitude Of Angels (CD2) – Ferrara

Used drive : TSSTcorpCDDVDW SE-208DB Adapter: 1 ID: 1

Read mode : Secure
Utilize accurate stream : Yes
Defeat audio cache : Yes
Make use of C2 pointers : No

Read offset correction : 6
Overread into Lead-In and Lead-Out : No
Fill up missing offset samples with silence : Yes
Delete leading and trailing silent blocks : No
Null samples used in CRC calculations : Yes
Used interface : Native Win32 interface for Win NT & 2000
Gap handling : Appended to previous track

Used output format : User Defined Encoder
Selected bitrate : 1024 kBit/s
Quality : High
Add ID3 tag : No
Command line compressor : C:Program Files (x86)FLAC Frontendtoolsflac.exe
Additional command line options : -8 -V -T "ARTIST=%artist%" -T "TITLE=%title%" -T "ALBUM=%albumtitle%" -T "DATE=%year%" -T "TRACKNUMBER=%tracknr%" -T "TOTALTRACKS=%numtracks%" -T "GENRE=%genre%" -T "ALBUMARTIST=%albumartist%" -T "ALBUM ARTIST=%albumartist%" -T "COMMENT=EAC Secure Mode, Test & Copy, AccurateRip, FLAC -8" %source%

TOC of the extracted CD

Track | Start | Length | Start sector | End sector
––––––––––––––––––––––––––––-
1 | 0:00.00 | 43:48.31 | 0 | 197130
2 | 43:48.31 | 29:58.60 | 197131 | 332040
3 | 73:47.16 | 3:26.50 | 332041 | 347540

Track 1

Filename D:_EACKeith Jarrett – A Multitude Of Angels (2016) [FLAC] {4CD Set ECM Japan UCCE-1161~64}CD2 – Ferrara1 – Part I.wav

Pre-gap length 0:00:02.00

Peak level 92.2 %
Extraction speed 2.0 X
Track quality 99.9 %
Test CRC 26902FB1
Copy CRC 26902FB1
Accurately ripped (confidence 3) [AE75D8F8] (AR v2)
Copy OK

Track 2

Filename D:_EACKeith Jarrett – A Multitude Of Angels (2016) [FLAC] {4CD Set ECM Japan UCCE-1161~64}CD2 – Ferrara2 – Part II.wav

Peak level 97.7 %
Extraction speed 2.8 X
Track quality 99.9 %
Test CRC A4B58F05
Copy CRC A4B58F05
Accurately ripped (confidence 3) [42909986] (AR v2)
Copy OK

Track 3

Filename D:_EACKeith Jarrett – A Multitude Of Angels (2016) [FLAC] {4CD Set ECM Japan UCCE-1161~64}CD2 – Ferrara3 – Encore.wav

Peak level 54.0 %
Extraction speed 2.7 X
Track quality 100.0 %
Test CRC 2F1E4A53
Copy CRC 2F1E4A53
Accurately ripped (confidence 3) [14657437] (AR v2)
Copy OK

All tracks accurately ripped

No errors occurred

End of status report

–– CUETools DB Plugin V2.1.6

[CTDB TOCID: Sbwd_UWoTrYeqTYiWElKw7WFT_w-] found
Submit result: Sbwd_UWoTrYeqTYiWElKw7WFT_w- has been confirmed
Track | CTDB Status
1 | (77/78) Accurately ripped
2 | (78/78) Accurately ripped
3 | (75/78) Accurately ripped, or (2/78) differs in 2134 samples @03:26:35-03:26:38

==== Log checksum 56C68A0B5A63866286A18C54C741F8189B93C44CBAD409C2C9A437C3A2CAF6FD ====

EAC log CD3
Exact Audio Copy V1.1 from 23. June 2015

EAC extraction logfile from 14. February 2017, 11:05

Keith Jarrett / A Multitude Of Angels (CD3) – Torino

Used drive : TSSTcorpCDDVDW SE-208DB Adapter: 1 ID: 1

Read mode : Secure
Utilize accurate stream : Yes
Defeat audio cache : Yes
Make use of C2 pointers : No

Read offset correction : 6
Overread into Lead-In and Lead-Out : No
Fill up missing offset samples with silence : Yes
Delete leading and trailing silent blocks : No
Null samples used in CRC calculations : Yes
Used interface : Native Win32 interface for Win NT & 2000
Gap handling : Appended to previous track

Used output format : User Defined Encoder
Selected bitrate : 1024 kBit/s
Quality : High
Add ID3 tag : No
Command line compressor : C:Program Files (x86)FLAC Frontendtoolsflac.exe
Additional command line options : -8 -V -T "ARTIST=%artist%" -T "TITLE=%title%" -T "ALBUM=%albumtitle%" -T "DATE=%year%" -T "TRACKNUMBER=%tracknr%" -T "TOTALTRACKS=%numtracks%" -T "GENRE=%genre%" -T "ALBUMARTIST=%albumartist%" -T "ALBUM ARTIST=%albumartist%" -T "COMMENT=EAC Secure Mode, Test & Copy, AccurateRip, FLAC -8" %source%

TOC of the extracted CD

Track | Start | Length | Start sector | End sector
––––––––––––––––––––––––––––-
1 | 0:00.00 | 42:23.69 | 0 | 190793
2 | 42:23.69 | 31:35.58 | 190794 | 332976

Track 1

Filename D:_EACKeith Jarrett – A Multitude Of Angels (2016) [FLAC] {4CD Set ECM Japan UCCE-1161~64}CD3 – Torino1 – Part I.wav

Pre-gap length 0:00:02.00

Peak level 77.0 %
Extraction speed 2.0 X
Track quality 100.0 %
Test CRC 03B59357
Copy CRC 03B59357
Accurately ripped (confidence 3) [685F0D0B] (AR v2)
Copy OK

Track 2

Filename D:_EACKeith Jarrett – A Multitude Of Angels (2016) [FLAC] {4CD Set ECM Japan UCCE-1161~64}CD3 – Torino2 – Part II.wav

Peak level 87.5 %
Extraction speed 2.9 X
Track quality 100.0 %
Test CRC AAC1D2ED
Copy CRC AAC1D2ED
Accurately ripped (confidence 3) [8FFCCD36] (AR v2)
Copy OK

All tracks accurately ripped

No errors occurred

End of status report

–– CUETools DB Plugin V2.1.6

[CTDB TOCID: CeVi6lLU8qS279l..P7_RoKivSk-] found
Submit result: CeVi6lLU8qS279l..P7_RoKivSk- has been confirmed
Track | CTDB Status
1 | (77/77) Accurately ripped
2 | (76/77) Accurately ripped

==== Log checksum E2741ADD7B8B17C2EBEBA877296E28C9411612E5DD459DB9097A586899CC2D15 ====

EAC log CD4
Exact Audio Copy V1.1 from 23. June 2015

EAC extraction logfile from 14. February 2017, 13:02

Keith Jarrett / A Multitude Of Angels (CD4) – Genova

Used drive : TSSTcorpCDDVDW SE-208DB Adapter: 1 ID: 1

Read mode : Secure
Utilize accurate stream : Yes
Defeat audio cache : Yes
Make use of C2 pointers : No

Read offset correction : 6
Overread into Lead-In and Lead-Out : No
Fill up missing offset samples with silence : Yes
Delete leading and trailing silent blocks : No
Null samples used in CRC calculations : Yes
Used interface : Native Win32 interface for Win NT & 2000
Gap handling : Appended to previous track

Used output format : User Defined Encoder
Selected bitrate : 1024 kBit/s
Quality : High
Add ID3 tag : No
Command line compressor : C:Program Files (x86)FLAC Frontendtoolsflac.exe
Additional command line options : -8 -V -T "ARTIST=%artist%" -T "TITLE=%title%" -T "ALBUM=%albumtitle%" -T "DATE=%year%" -T "TRACKNUMBER=%tracknr%" -T "TOTALTRACKS=%numtracks%" -T "GENRE=%genre%" -T "ALBUMARTIST=%albumartist%" -T "ALBUM ARTIST=%albumartist%" -T "COMMENT=EAC Secure Mode, Test & Copy, AccurateRip, FLAC -8" %source%

TOC of the extracted CD

Track | Start | Length | Start sector | End sector
––––––––––––––––––––––––––––-
1 | 0:00.00 | 31:41.17 | 0 | 142591
2 | 31:41.17 | 31:43.48 | 142592 | 285364
3 | 63:24.65 | 5:52.00 | 285365 | 311764
4 | 69:16.65 | 6:03.41 | 311765 | 339030

Track 1

Filename D:_EACKeith Jarrett – A Multitude Of Angels (2016) [FLAC] {4CD Set ECM Japan UCCE-1161~64}CD4 – Genova1 – Part I.wav

Pre-gap length 0:00:02.00

Peak level 85.3 %
Extraction speed 1.9 X
Track quality 100.0 %
Test CRC D2FD38DE
Copy CRC D2FD38DE
Accurately ripped (confidence 3) [46609A1C] (AR v2)
Copy OK

Track 2

Filename D:_EACKeith Jarrett – A Multitude Of Angels (2016) [FLAC] {4CD Set ECM Japan UCCE-1161~64}CD4 – Genova2 – Part II.wav

Peak level 71.1 %
Extraction speed 2.7 X
Track quality 100.0 %
Test CRC EFB0184E
Copy CRC EFB0184E
Accurately ripped (confidence 3) [A547D797] (AR v2)
Copy OK

Track 3

Filename D:_EACKeith Jarrett – A Multitude Of Angels (2016) [FLAC] {4CD Set ECM Japan UCCE-1161~64}CD4 – Genova3 – Encore.wav

Peak level 61.9 %
Extraction speed 2.8 X
Track quality 100.0 %
Test CRC 693A310F
Copy CRC 693A310F
Accurately ripped (confidence 3) [19566DFF] (AR v2)
Copy OK

Track 4

Filename D:_EACKeith Jarrett – A Multitude Of Angels (2016) [FLAC] {4CD Set ECM Japan UCCE-1161~64}CD4 – Genova4 – Over The Rainbow.wav

Peak level 59.5 %
Extraction speed 2.6 X
Track quality 99.9 %
Test CRC F8E9DADD
Copy CRC F8E9DADD
Accurately ripped (confidence 3) [059ECEA0] (AR v2)
Copy OK

All tracks accurately ripped

No errors occurred

End of status report

–– CUETools DB Plugin V2.1.6

[CTDB TOCID: Uhe59CbpDM_2BQt_palF7KCuhkQ-] found
Submit result: Uhe59CbpDM_2BQt_palF7KCuhkQ- has been confirmed
Track | CTDB Status
1 | (80/80) Accurately ripped
2 | (80/80) Accurately ripped
3 | (80/80) Accurately ripped
4 | (76/80) Accurately ripped

==== Log checksum C76612D8A975BB0FCEF079D270AB57FE4816D11C4E60E56F4CDA590FE2270D8B ====

Keith Jarrett - A Multitude Of Angels (2016) {4CD Set ECM Japan UCCE-1161~64}
===

Keith Jarrett – A Multitude Of Angels (2016) {4CD Set ECM Japan UCCE-1161~64} Download, Warez, DDL, Free, Full Album, Torrent, Legal.

Download