Keith Jarrett – A Multitude Of Angels (2016)

Download
Keith Jarrett - A Multitude Of Angels (2016)

Keith Jarrett – A Multitude Of Angels (2016)
EAC Rip | FLAC (Tracks) +cue, log, artworks – 1.26 GB | 04:57:07
Jazz | Label: ECM | Release Year: 2016

Keith Jarrett’s numerous volumes of improvised solo piano recordings are all treasure troves of spontaneous music making. Documented since the 1970s, they reveal the opening of his music as it readily embraces classical and sacred music influences, filters out what is unnecessary in his technique, and encounters the depth and breadth of the jazz tradition and his own unique abilities as a composer. The four discs in A Multitude of Angels were recorded in as many Italian cities during the last week of October 1996 some 20 months after the concert captured on La Scala. These were his last concerts before being sidelined for two years from chronic fatigue syndrome. Jarrett is musician, producer, and engineer here. The performances were captured to his Sonosax DAT recorder seemingly without the view of release at the time. They were sent direct from the piano to transformer-less microphones to the machine, with no mixing board in between. While it’s not as raw as The Melody, At Night, With You, his set of intimate home recordings, there is a less airy, less pristine feel in the sound of these recordings.

Sound is only one aspect of what makes these recordings different. In the accompanying booklet, Jarrett describes these discs as the "pinnacle" of his career in the sense that these were uninterrupted performances (no set breaks) in smaller rooms with quiet audiences (a big bugaboo of his, all before the advent of the digital age). Though he was weakened by the burden of his as yet undiagnosed illness, he goes for it here. The gorgeous interpolations of folk, funky gospel, and jazz during the Modena concert’s first ten minutes (disc one) are among the most joyous in his catalog. Jarrett describes these shows as if he were ordained by fate to be in the moment as if "playing for the last time." The unfettered feel in his improvisation is sometimes choppier and more rugged than elsewhere in his catalog though his playing remains astonishing both technically and creatively. Check the knotty classical improvisations in the second part of Modena where he encounters and extrapolates on ragtime and modal jazz in blocks, feints, stops, and starts that all flow through the well without obstacle. Processional balladic improv introduces the first half of the Torino show on disc three. It shifts and shimmers, emerging as a wedding of Bach and torch song before stripping itself to the bone. Its final section investigates a repetitive phrase with an extended view of harmony and rhythm. The final show in Genova (disc four) concludes with a fantastically funky blues encore before the pianist delivers a reading of Harold Arlen’s "Over the Rainbow." Jarrett’s never delivered it with such tenderness before at least on record as he illuminates the hidden magic in its lithe harmony. For fans of the pianist, A Multitude of Angels is an indispensable document. It’s not only wildly creative, but deeply soulful, spiritual, and dazzling in both variety and facility.

TRACKLIST

CD1
1 Part I (Live At Teatro Comunale, Modena / 1996)
2 Part II (Live At Teatro Comunale, Modena / 1996)
3 Danny Boy (Live At Teatro Comunale, Modena / 1996)

EAC
Exact Audio Copy V1.0 beta 3 from 29. August 2011

EAC extraction logfile from 3. January 2017, 19:35

Keith Jarrett / A Multitude of Angels – CD1 – Modena [ECM 2500]

Used drive : ASUS DRW-24F1ST a Adapter: 0 ID: 0

Read mode : Secure
Utilize accurate stream : Yes
Defeat audio cache : Yes
Make use of C2 pointers : No

Read offset correction : 6
Overread into Lead-In and Lead-Out : No
Fill up missing offset samples with silence : Yes
Delete leading and trailing silent blocks : No
Null samples used in CRC calculations : Yes
Used interface : Native Win32 interface for Win NT & 2000
Gap handling : Appended to previous track

Used output format : User Defined Encoder
Selected bitrate : 128 kBit/s
Quality : High
Add ID3 tag : No
Command line compressor : C:Program Files (x86)Exact Audio CopyFLACFLAC.EXE
Additional command line options : -8 -V -T "ARTIST=%artist%" -T "TITLE=%title%" -T "ALBUM=%albumtitle%" -T "DATE=%year%" -T "TRACKNUMBER=%tracknr%" -T "TOTALTRACKS=%numtracks%" -T "GENRE=%genre%" -T "ALBUMARTIST=%albumartist%" -T "ALBUM ARTIST=%albumartist%" -T "COMMENT=EAC Secure Mode, Test & Copy, AccurateRip, FLAC -8" %source%

TOC of the extracted CD

Track | Start | Length | Start sector | End sector
––––––––––––––––––––––––––––-
1 | 0:00.00 | 34:18.54 | 0 | 154403
2 | 34:18.54 | 31:19.73 | 154404 | 295401
3 | 65:38.52 | 5:00.61 | 295402 | 317962

Track 1

Filename K:EAC1 – Part I.wav

Pre-gap length 0:00:02.00

Peak level 87.5 %
Extraction speed 6.9 X
Track quality 99.9 %
Test CRC 4FC87719
Copy CRC 4FC87719
Accurately ripped (confidence 4) [E07B1692] (AR v2)
Copy OK

Track 2

Filename K:EAC2 – Part II.wav

Peak level 87.5 %
Extraction speed 9.5 X
Track quality 100.0 %
Test CRC B17BEE7B
Copy CRC B17BEE7B
Accurately ripped (confidence 4) [E67A2E20] (AR v2)
Copy OK

Track 3

Filename K:EAC3 – Danny Boy.wav

Peak level 57.0 %
Extraction speed 8.5 X
Track quality 99.9 %
Test CRC AA2620EC
Copy CRC AA2620EC
Accurately ripped (confidence 3) [2827C0FF] (AR v2)
Copy OK

All tracks accurately ripped

No errors occurred

End of status report

==== Log checksum 1745043449405441D8A335CFDAF89B30AE84C89E35F4A274BC8364DB21B24851 ====

CD2

4 Part I (Live At Teatro Comunale, Ferrara / 1996)
5 Part II (Live At Teatro Comunale, Ferrara / 1996)
6 Encore (Live At Teatro Comunale, Ferrara / 1996)

EAC
Exact Audio Copy V1.0 beta 3 from 29. August 2011

EAC extraction logfile from 3. January 2017, 20:01

Keith Jarrett / A Multitude of Angels – CD2 – Ferrara [ECM 2501]

Used drive : ASUS DRW-24F1ST a Adapter: 0 ID: 0

Read mode : Secure
Utilize accurate stream : Yes
Defeat audio cache : Yes
Make use of C2 pointers : No

Read offset correction : 6
Overread into Lead-In and Lead-Out : No
Fill up missing offset samples with silence : Yes
Delete leading and trailing silent blocks : No
Null samples used in CRC calculations : Yes
Used interface : Native Win32 interface for Win NT & 2000
Gap handling : Appended to previous track

Used output format : User Defined Encoder
Selected bitrate : 128 kBit/s
Quality : High
Add ID3 tag : No
Command line compressor : C:Program Files (x86)Exact Audio CopyFLACFLAC.EXE
Additional command line options : -8 -V -T "ARTIST=%artist%" -T "TITLE=%title%" -T "ALBUM=%albumtitle%" -T "DATE=%year%" -T "TRACKNUMBER=%tracknr%" -T "TOTALTRACKS=%numtracks%" -T "GENRE=%genre%" -T "ALBUMARTIST=%albumartist%" -T "ALBUM ARTIST=%albumartist%" -T "COMMENT=EAC Secure Mode, Test & Copy, AccurateRip, FLAC -8" %source%

TOC of the extracted CD

Track | Start | Length | Start sector | End sector
––––––––––––––––––––––––––––-
1 | 0:00.00 | 43:48.31 | 0 | 197130
2 | 43:48.31 | 29:58.60 | 197131 | 332040
3 | 73:47.16 | 3:26.50 | 332041 | 347540

Track 1

Filename K:EAC1 – Part I.wav

Pre-gap length 0:00:02.00

Peak level 92.2 %
Extraction speed 7.3 X
Track quality 99.9 %
Test CRC 26902FB1
Copy CRC 26902FB1
Accurately ripped (confidence 3) [AE75D8F8] (AR v2)
Copy OK

Track 2

Filename K:EAC2 – Part II.wav

Peak level 97.7 %
Extraction speed 9.9 X
Track quality 99.9 %
Test CRC A4B58F05
Copy CRC A4B58F05
Accurately ripped (confidence 3) [42909986] (AR v2)
Copy OK

Track 3

Filename K:EAC3 – Encore.wav

Peak level 54.0 %
Extraction speed 9.5 X
Track quality 100.0 %
Test CRC 2F1E4A53
Copy CRC 2F1E4A53
Accurately ripped (confidence 3) [14657437] (AR v2)
Copy OK

All tracks accurately ripped

No errors occurred

End of status report

==== Log checksum 58CC9D0C52207E3B3C26241EAF5F21B3ECE962A2BC3AC3017C851312D83FE051 ====

CD3

7 Part I (Live At Teatro Regio, Torino / 1996)
8 Part II (Live At Teatro Regio, Torino / 1996)

EAC
Exact Audio Copy V1.0 beta 3 from 29. August 2011

EAC extraction logfile from 3. January 2017, 20:49

Keith Jarrett / A Multitude of Angels – CD3 – Torino [ECM 2502]

Used drive : ASUS DRW-24F1ST a Adapter: 0 ID: 0

Read mode : Secure
Utilize accurate stream : Yes
Defeat audio cache : Yes
Make use of C2 pointers : No

Read offset correction : 6
Overread into Lead-In and Lead-Out : No
Fill up missing offset samples with silence : Yes
Delete leading and trailing silent blocks : No
Null samples used in CRC calculations : Yes
Used interface : Native Win32 interface for Win NT & 2000
Gap handling : Appended to previous track

Used output format : User Defined Encoder
Selected bitrate : 128 kBit/s
Quality : High
Add ID3 tag : No
Command line compressor : C:Program Files (x86)Exact Audio CopyFLACFLAC.EXE
Additional command line options : -8 -V -T "ARTIST=%artist%" -T "TITLE=%title%" -T "ALBUM=%albumtitle%" -T "DATE=%year%" -T "TRACKNUMBER=%tracknr%" -T "TOTALTRACKS=%numtracks%" -T "GENRE=%genre%" -T "ALBUMARTIST=%albumartist%" -T "ALBUM ARTIST=%albumartist%" -T "COMMENT=EAC Secure Mode, Test & Copy, AccurateRip, FLAC -8" %source%

TOC of the extracted CD

Track | Start | Length | Start sector | End sector
––––––––––––––––––––––––––––-
1 | 0:00.00 | 42:23.69 | 0 | 190793
2 | 42:23.69 | 31:35.58 | 190794 | 332976

Track 1

Filename K:EAC1 – Part I.wav

Pre-gap length 0:00:02.00

Peak level 77.0 %
Extraction speed 7.3 X
Track quality 100.0 %
Test CRC 03B59357
Copy CRC 03B59357
Accurately ripped (confidence 3) [685F0D0B] (AR v2)
Copy OK

Track 2

Filename K:EAC2 – Part II.wav

Peak level 87.5 %
Extraction speed 10.0 X
Track quality 100.0 %
Test CRC AAC1D2ED
Copy CRC AAC1D2ED
Accurately ripped (confidence 3) [8FFCCD36] (AR v2)
Copy OK

All tracks accurately ripped

No errors occurred

End of status report

==== Log checksum 13208C67589E6DCAB48B1EE4A73B37229ECF3EC6ACD7963CB0FA08F4BE171B33 ====

CD4

9 Part I (Live At Teatro Carlo Felice, Genova / 1996)
10 Part II (Live At Teatro Carlo Felice, Genova / 1996)
11 Encore (Live At Teatro Carlo Felice, Genova / 1996)
12 Over The Rainbow (Live At Teatro Carlo Felice, Genova / 1996)

EAC
Exact Audio Copy V1.0 beta 3 from 29. August 2011

EAC extraction logfile from 3. January 2017, 21:36

Keith Jarrett / A Multitude of Angels – CD4 – Genova [ECM 2503]

Used drive : ASUS DRW-24F1ST a Adapter: 0 ID: 0

Read mode : Secure
Utilize accurate stream : Yes
Defeat audio cache : Yes
Make use of C2 pointers : No

Read offset correction : 6
Overread into Lead-In and Lead-Out : No
Fill up missing offset samples with silence : Yes
Delete leading and trailing silent blocks : No
Null samples used in CRC calculations : Yes
Used interface : Native Win32 interface for Win NT & 2000
Gap handling : Appended to previous track

Used output format : User Defined Encoder
Selected bitrate : 128 kBit/s
Quality : High
Add ID3 tag : No
Command line compressor : C:Program Files (x86)Exact Audio CopyFLACFLAC.EXE
Additional command line options : -8 -V -T "ARTIST=%artist%" -T "TITLE=%title%" -T "ALBUM=%albumtitle%" -T "DATE=%year%" -T "TRACKNUMBER=%tracknr%" -T "TOTALTRACKS=%numtracks%" -T "GENRE=%genre%" -T "ALBUMARTIST=%albumartist%" -T "ALBUM ARTIST=%albumartist%" -T "COMMENT=EAC Secure Mode, Test & Copy, AccurateRip, FLAC -8" %source%

TOC of the extracted CD

Track | Start | Length | Start sector | End sector
––––––––––––––––––––––––––––-
1 | 0:00.00 | 31:41.17 | 0 | 142591
2 | 31:41.17 | 31:43.48 | 142592 | 285364
3 | 63:24.65 | 5:52.00 | 285365 | 311764
4 | 69:16.65 | 6:03.41 | 311765 | 339030

Track 1

Filename K:EAC1 – Part I.wav

Pre-gap length 0:00:02.00

Peak level 85.3 %
Extraction speed 2.8 X
Track quality 100.0 %
Test CRC D2FD38DE
Copy CRC D2FD38DE
Accurately ripped (confidence 3) [46609A1C] (AR v2)
Copy OK

Track 2

Filename K:EAC2 – Part II.wav

Peak level 71.1 %
Extraction speed 3.9 X
Track quality 100.0 %
Test CRC EFB0184E
Copy CRC EFB0184E
Accurately ripped (confidence 3) [A547D797] (AR v2)
Copy OK

Track 3

Filename K:EAC3 – Encore.wav

Peak level 61.9 %
Extraction speed 4.1 X
Track quality 100.0 %
Test CRC 693A310F
Copy CRC 693A310F
Accurately ripped (confidence 3) [19566DFF] (AR v2)
Copy OK

Track 4

Filename K:EAC4 – Over the rainbow.wav

Peak level 59.5 %
Extraction speed 3.9 X
Track quality 99.9 %
Test CRC F8E9DADD
Copy CRC F8E9DADD
Accurately ripped (confidence 3) [059ECEA0] (AR v2)
Copy OK

All tracks accurately ripped

No errors occurred

End of status report

==== Log checksum 68AF46BDF26CB40843DA80CC5811F9E12AAFFFA7B084030569498CF5009703D3 ====

All thanks go to the original releaser

Keith Jarrett – A Multitude Of Angels (2016) Download, Warez, DDL, Free, Full Album, Torrent, Legal.

Download