Kayhan Kalhor – I Will Not Stand Alone (2012) [Re-Up]

Download
Kayhan Kalhor - I Will Not Stand Alone (2012) [Re-Up]

Kayhan Kalhor – I Will Not Stand Alone (2012)
EAC 1.0b2 | FLAC tracks level 8 | Cue+Log+M3U | Full Scans 600dpi | 458MB + 5% Recovery
MP3 CBR 320 Kbps | 276MB + 5% Recovery
Genre: World Music, Ethnic, Persian
Kayhan Kalhor - I Will Not Stand Alone (2012) [Re-Up]

Iranian kamanche virtuoso and innovative composer Kayhan Kalhor is known for his international collaborations with cellist Yo Yo Ma and the Silk Road Ensemble, the Persian-Indian ensemble, and the Brooklyn Rider string quartet . I Will Not Stand Alone, is a spellbinding meditation on one of the most difficult stages in his life. Kalhor was part of the Green Movement civil uprising in Tehran, which was later squashed by the Iranian regime after disputed national elections. This was certainly an intense, emotional period, where darkness and violence seemed to be taking over. Through Kalhor’s music and its immediate connection to the people, hope prevails.

Track List
01. Between The Heavens And Me 14:21
02. Where Are You? 11:56
03. The Laziest Summer Afternoon 7:47
04. Dancing Under The Walnut Tree 6:43
05. Hear Me Cry 3:31
06. Pluck A Star From The Sky 1:42
07. Here I Am Alone Again 7:16
08. I Will Not Stand Alone 5:36

Track 2 bases on a melody from the Kurdish Tambour repertoire
Tracks 1, 2, 3, 7, 8 are bases on Avaz-e Isfahan
Tracks 4, 5, 6 are based on Avaz-e Afshari

musicians
Kayhan Kalhour – Shah Kaman
Ali Bahrami Fard – Bass Santour

Produced by Kayhan Kalhor

EAC Logfile
Exact Audio Copy V1.0 beta 2 from 29. April 2011

EAC extraction logfile from 28. May 2012, 13:36

Kayhan Kalhor / I Will Not Stand Alone

Used drive : PLEXTOR DVDR PX-L890SA Adapter: 2 ID: 1

Read mode : Secure
Utilize accurate stream : Yes
Defeat audio cache : Yes
Make use of C2 pointers : No

Read offset correction : 6
Overread into Lead-In and Lead-Out : No
Fill up missing offset samples with silence : Yes
Delete leading and trailing silent blocks : No
Null samples used in CRC calculations : Yes
Used interface : Native Win32 interface for Win NT & 2000
Gap handling : Appended to previous track

Used output format : User Defined Encoder
Selected bitrate : 256 kBit/s
Quality : High
Add ID3 tag : No
Command line compressor : C:Program Files (x86)Exact Audio CopyFLACFLAC.EXE
Additional command line options : -8 -V -T "ARTIST=%artist%" -T "TITLE=%title%" -T "ALBUM=%albumtitle%" -T "DATE=%year%" -T "TRACKNUMBER=%tracknr%" -T "TOTALTRACKS=%numtracks%" -T "GENRE=%genre%" -T "ALBUMARTIST=%albumartist%" -T "ALBUM ARTIST=%albumartist%

TOC of the extracted CD

Track | Start | Length | Start sector | End sector
––––––––––––––––––––––––––––-
1 | 0:00.00 | 14:20.34 | 0 | 64533
2 | 14:20.34 | 11:55.57 | 64534 | 118215
3 | 26:16.16 | 6:44.09 | 118216 | 148524
4 | 33:00.25 | 7:46.42 | 148525 | 183516
5 | 40:46.67 | 3:31.23 | 183517 | 199364
6 | 44:18.15 | 1:41.07 | 199365 | 206946
7 | 45:59.22 | 7:15.65 | 206947 | 239636
8 | 53:15.12 | 5:36.68 | 239637 | 264904

Track 1

Filename F:Flac Rips1 – Between the Heavens and Me.wav

Pre-gap length 0:00:02.00

Peak level 97.7 %
Extraction speed 4.4 X
Track quality 100.0 %
Test CRC B74FF7C5
Copy CRC B74FF7C5
Accurately ripped (confidence 1) [6F958F92] (AR v1)
Copy OK

Track 2

Filename F:Flac Rips2 – Where Are You.wav

Peak level 97.7 %
Extraction speed 5.0 X
Track quality 99.9 %
Test CRC 45398D03
Copy CRC 45398D03
Accurately ripped (confidence 1) [8F7684EA] (AR v1)
Copy OK

Track 3

Filename F:Flac Rips3 – The Laziest Summer Afternoon.wav

Peak level 97.7 %
Extraction speed 5.9 X
Track quality 100.0 %
Test CRC 7E32EFDF
Copy CRC 7E32EFDF
Accurately ripped (confidence 1) [D4AFB39B] (AR v1)
Copy OK

Track 4

Filename F:Flac Rips4 – Dancing Under the Walnut Tree.wav

Peak level 97.7 %
Extraction speed 6.4 X
Track quality 100.0 %
Test CRC F695B616
Copy CRC F695B616
Accurately ripped (confidence 1) [2ECB8C24] (AR v1)
Copy OK

Track 5

Filename F:Flac Rips5 – Hear My Cry.wav

Peak level 97.7 %
Extraction speed 6.2 X
Track quality 100.0 %
Test CRC A31E5F20
Copy CRC A31E5F20
Accurately ripped (confidence 1) [FBE91D73] (AR v1)
Copy OK

Track 6

Filename F:Flac Rips6 – Pluck a Star From the Sky.wav

Peak level 97.7 %
Extraction speed 5.4 X
Track quality 100.0 %
Test CRC C3DB259F
Copy CRC C3DB259F
Accurately ripped (confidence 1) [7B2D90C5] (AR v1)
Copy OK

Track 7

Filename F:Flac Rips7 – Here I Am Alone Again.wav

Peak level 97.7 %
Extraction speed 7.1 X
Track quality 100.0 %
Test CRC 9BEC827A
Copy CRC 9BEC827A
Accurately ripped (confidence 1) [4C322C2E] (AR v1)
Copy OK

Track 8

Filename F:Flac Rips8 – I Will Not Stand Alone.wav

Peak level 97.7 %
Extraction speed 7.3 X
Track quality 100.0 %
Test CRC FEB92D1F
Copy CRC FEB92D1F
Accurately ripped (confidence 1) [88888153] (AR v1)
Copy OK

All tracks accurately ripped

No errors occurred

End of status report

==== Log checksum 628A9080DEB3FFBFFB7B73C368F9B03FC934B8C22B37F0D8C0639C850B73968A ====

Dynamic Range Analysis
––––––––––––––––––––––––––––––––––––––––
Analyzed: Kayhan Kalhor / I Will Not Stand Alone
––––––––––––––––––––––––––––––––––––––––

DR Peak RMS Duration Track
––––––––––––––––––––––––––––––––––––––––
DR12 -0.20 dB -17.14 dB 14:20 01-Between the Heavens and Me
DR11 -0.20 dB -14.98 dB 11:56 02-Where Are You?
DR9 -0.20 dB -11.97 dB 6:44 03-The Laziest Summer Afternoon
DR10 -0.20 dB -14.68 dB 7:47 04-Dancing Under the Walnut Tree
DR12 -0.20 dB -15.06 dB 3:31 05-Hear My Cry
DR10 -0.20 dB -13.16 dB 1:41 06-Pluck a Star From the Sky
DR11 -0.20 dB -15.91 dB 7:16 07-Here I Am Alone Again
DR10 -0.20 dB -13.12 dB 5:37 08-I Will Not Stand Alone
––––––––––––––––––––––––––––––––––––––––

Number of tracks: 8
Official DR value: DR11

Samplerate: 44100 Hz
Channels: 2
Bits per sample: 16
Bitrate: 818 kbps
Codec: FLAC
================================================================================

Kayhan Kalhor - I Will Not Stand Alone (2012) [Re-Up]
Kayhan Kalhor - I Will Not Stand Alone (2012) [Re-Up]
Kayhan Kalhor - I Will Not Stand Alone (2012) [Re-Up]
Thanks to the original ripper

Kayhan Kalhor – I Will Not Stand Alone (2012) [Re-Up] Download, Warez, DDL, Free, Full Album, Torrent, Legal.

Download